Поиск

2018 Jazvolution - Spin {Universal Music} [24-96]

2018 Jazvolution - Spin {Universal Music} [24-96]
Стили:
Издатель (лейбл):
Битрейт аудио:
lossless
Треклист:

◈ 01 - So Many Stars (00:05:45)
◈ 02 - When Sunny Gets Blue (00:06:56)
◈ 03 - Perdido (00:05:30)
◈ 04 - My Funny Valentine (00:06:59)
◈ 05 - Fly Me To The Moon (00:05:06)
◈ 06 - I'm Old Fashioned (00:03:21)
◈ 07 - Afro Blue (00:05:41)
◈ 08 - 'S Wonderful (00:06:45)
◈ 09 - Invitation (00:05:42)
◈ 10 - Antonio's Song (00:04:45)

Доп. инфо:

• Формат записи | Источник записи: [TR24][OF]
• Наличие водяных знаков: Нет
• Год издания релиза: 2018
• Продолжительность: 00:56:36
• Источник: internet
• WEB релиз: ссылка
• Контейнер: FLAC (*.flac)
• Тип рипа: tracks
• Разрядность: 24/96
• Формат: PCM
• Количество каналов: 2.0
• Наличие сканов: front

Лог проверки качества
foobar2000 1.4.2 / Замер динамического диапазона (DR) 1.1.1
Дата отчёта:  2020-03-12 09:48:29

--------------------------------------------------------------------------------
Анализ:   Jazvolution / Spin
--------------------------------------------------------------------------------

DR         Пики         RMS           Продолжительность трека
--------------------------------------------------------------------------------
DR11      -0.57 дБ   -15.20 дБ      5:45 01-So Many Stars
DR13      -0.51 дБ   -17.17 дБ      6:57 02-When Sunny Gets Blue
DR13      -0.72 дБ   -16.12 дБ      5:31 03-Perdido
DR12      -0.73 дБ   -15.96 дБ      7:00 04-My Funny Valentine
DR10      -0.31 дБ   -16.10 дБ      5:07 05-Fly Me To The Moon
DR12      -0.65 дБ   -14.81 дБ      3:22 06-I'm Old Fashioned
DR13      -0.60 дБ   -15.99 дБ      5:41 07-Afro Blue
DR12      -0.76 дБ   -15.16 дБ      6:46 08-'S Wonderful
DR11      -0.68 дБ   -15.24 дБ      5:42 09-Invitation
DR12      -0.68 дБ   -14.83 дБ      4:46 10-Antonio's Song
--------------------------------------------------------------------------------

Количество треков: 10
Реальные значения DR: DR12

Частота:   96000 Гц
Каналов:   2
Разрядность:   24
Битрейт:   2915 кбит/с
Кодек:   FLAC
================================================================================
Приватный:
Нет (DHT включён)
Размер:
1.13 Гб (1,215,145,578 байт) » файлов: 11
Участники:
0 раздают, 0 качают (0 участников всего)
Внешние участники:
5 раздают, 2 качают (7 участников всего) [ Обновить ]
No seeders - write a personal message to user M0p94ok. Нет сидеров - пишите личное сообщение пользователю M0p94ok.
10:27
41
Нет комментариев. Ваш будет первым!