Поиск

1967 Don Rendell - Ian Carr Quintet - Phase III (2018) {Decca, UMO} [24-96]

1967 Don Rendell - Ian Carr Quintet - Phase III (2018) {Decca, UMO} [24-96]
Стили:
Дата записи диска:
23 февраля 1967
Место записи:
Lansdowne Studios, London, UK
Издатель (лейбл):
Носитель:
WEB
Формат:
PCM
Тип рипа:
tracks
Контейнер:
FLAC (*.flac)
Количество каналов:
2.0
Разрядность/ЧД:
24/96
Битрейт аудио:
lossless
Формат записи/Источник записи:
[TR24][OF]
Время звучания:
00:41:26
Наличие сканов:
только обложка
Наличие водяных знаков:
нет
Страна-производитель диска (релиза):
USA
Релизёр (источник):
M0p94ok
Треклист:

1. Crazy Jane  07:02
2. On!  06:49
3. Les Neiges D'Antan (Snows Of Yesteryear)  05:19
4. Bath Sheba  09:05
5. Black Marigolds  13:28
 

Лог проверки качества
foobar2000 1.3.16 / Dynamic Range Meter 1.1.1
log date: 2018-12-10 20:35:41

--------------------------------------------------------------------------------
Analyzed: The Don Rendell / Ian Carr Quintet / Phase III
--------------------------------------------------------------------------------

DR         Peak         RMS     Duration Track
--------------------------------------------------------------------------------
DR10      -0.59 dB   -14.93 dB      7:02 01-Crazy Jane
DR10      -0.40 dB   -14.03 dB      6:49 02-On!
DR11      -2.17 dB   -19.31 dB      5:20 03-Les Neiges D'Antan (Snows Of Yesteryear)
DR10      -3.30 dB   -18.24 dB      9:06 04-Bath Sheba
DR11      -1.33 dB   -18.33 dB     13:26 05-Black Marigolds
--------------------------------------------------------------------------------

Number of tracks:  5
Official DR value: DR10

Samplerate:        96000 Hz
Channels:          2
Bits per sample:   24
Bitrate:           2774 kbps
Codec:             FLAC
================================================================================
Приватный:
Нет (DHT включён)
Размер:
855.45 Мб (896,999,133 байт) » файлов: 8
Участники:
2 раздают, 0 качают (2 участников всего)
Внешние участники:
--- [ Обновить ]
No seeders - write a personal message to user M0p94ok. Нет сидеров - пишите личное сообщение пользователю M0p94ok.
09:46
29
Нет комментариев. Ваш будет первым!