Поиск

2020 Lynne Arriale Trio - Chimes of Freedom {Challenge} [24-96]

2020 Lynne Arriale Trio - Chimes of Freedom {Challenge} [24-96]
Стили:
Битрейт аудио:
lossless
Треклист:

◈ 01 - Sometimes I Feel Like a Motherless Child (00:04:48)
◈ 02 - Journey (00:04:55)
◈ 03 - The Dreamers (00:04:18)
◈ 04 - 3 Million Steps (00:04:53)
◈ 05 - Hope (00:04:55)
◈ 06 - The Whole Truth (00:05:11)
◈ 07 - Lady Liberty (00:05:18)
◈ 08 - Reunion (00:03:52)
◈ 09 - Chimes of Freedom (00:04:56)
◈ 10 - American Tune (00:05:45)

Доп. инфо:

• Формат записи | Источник записи: [TR24][OF]
• Наличие водяных знаков: Нет
• Год издания релиза: 2020
• Лейбл: Challenge Records
• Продолжительность: 00:48:54
• Источник: internet
• WEB релиз: ссылка
• Контейнер: FLAC (*.flac)
• Тип рипа: tracks
• Разрядность: 24/96
• Формат: PCM
• Количество каналов: 2.0
• Наличие сканов: front

Лог проверки качества
foobar2000 1.4.2 / Замер динамического диапазона (DR) 1.1.1
Дата отчёта:  2020-03-12 12:59:00

--------------------------------------------------------------------------------
Анализ:   Lynne Arriale Trio / Chimes of Freedom
--------------------------------------------------------------------------------

DR         Пики         RMS           Продолжительность трека
--------------------------------------------------------------------------------
DR11       0.00 дБ   -13.25 дБ      4:48 01-Sometimes I Feel Like a Motherless Child
DR9       -1.60 дБ   -13.46 дБ      4:55 02-Journey
DR11      -0.46 дБ   -13.12 дБ      4:18 03-The Dreamers
DR11      -0.68 дБ   -13.85 дБ      4:54 04-3 Million Steps
DR11      -1.35 дБ   -14.69 дБ      4:56 05-Hope
DR11      -0.80 дБ   -13.97 дБ      5:11 06-The Whole Truth
DR11      -0.80 дБ   -14.66 дБ      5:18 07-Lady Liberty
DR11      -0.80 дБ   -13.76 дБ      3:52 08-Reunion
DR7       -1.95 дБ   -12.10 дБ      4:57 09-Chimes of Freedom
DR10      -0.80 дБ   -14.34 дБ      5:45 10-American Tune
--------------------------------------------------------------------------------

Количество треков: 10
Реальные значения DR: DR10

Частота:   96000 Гц
Каналов:   2
Разрядность:   24
Битрейт:   2593 кбит/с
Кодек:   FLAC
================================================================================
Приватный:
Нет (DHT включён)
Размер:
963.32 Мб (1,010,115,004 байт) » файлов: 11
Участники:
0 раздают, 0 качают (0 участников всего)
Внешние участники:
12 раздают, 4 качают (16 участников всего) [ Обновить ]
No seeders - write a personal message to user M0p94ok. Нет сидеров - пишите личное сообщение пользователю M0p94ok.
09:20
35
Нет комментариев. Ваш будет первым!