Вы используете незарегистрированную версию компонента "Вкладки"!

Поиск

2018 Philippe Le Baraillec - From Z to Z {CPSG B07LGN7XPC} [24-44,1]

2018 Philippe Le Baraillec - From Z to Z {CPSG B07LGN7XPC} [24-44,1]
Стили:
Номер по каталогу:
B07LGN7XPC
Носитель:
WEB
Формат:
PCM
Тип рипа:
tracks+.cue
Контейнер:
FLAC (*.flac)
Количество каналов:
2.0
Разрядность/ЧД:
24/44,1
Битрейт аудио:
lossless
Время звучания:
00:42:41
Наличие сканов:
web
Страна-производитель диска (релиза):
France
Релизёр (источник):
M0p94ok
Лог проверки качества
foobar2000 1.3.16 / Dynamic Range Meter 1.1.1
log date: 2018-12-28 21:24:36

--------------------------------------------------------------------------------
Analyzed: Philippe Le Baraillec / From Z to Z
--------------------------------------------------------------------------------

DR         Peak         RMS     Duration Track
--------------------------------------------------------------------------------
DR12      -0.77 dB   -16.73 dB      6:11 01-Between Z and Z
DR10      -0.71 dB   -14.49 dB      4:33 02-Flee to Fight
DR12      -4.39 dB   -19.44 dB      5:01 03-Bill XXIII V
DR13      -0.05 dB   -18.90 dB      5:04 04-All the Things Me Are _
DR15       0.00 dB   -18.48 dB      6:45 05-Nanook
DR13       0.00 dB   -18.70 dB      5:14 06-Maya
DR12      -1.83 dB   -17.36 dB      5:08 07-Kangaroo
DR12      -4.87 dB   -20.17 dB      4:48 08-Giant Steps
--------------------------------------------------------------------------------

Number of tracks:  8
Official DR value: DR12

Samplerate:        44100 Hz
Channels:          2
Bits per sample:   24
Bitrate:           1141 kbps
Codec:             FLAC
================================================================================
Any questions - support@pro-jazz.com. Есть вопросы - support@pro-jazz.com
23:13
242
Нет комментариев. Ваш будет первым!