Вы используете незарегистрированную версию компонента "Вкладки"!

Поиск

1989 Los Lobotomys & David Garfield - Los Lobotomys (2020) {Creatchy CR-027} [24-44,1]

1989 Los Lobotomys & David Garfield - Los Lobotomys (2020) {Creatchy CR-027} [24-44,1]
Стили:
Дата записи диска:
29 апреля 1989
Место записи:
The Complex, West Los Angeles, CA
Дата издания диска:
30 ноября 1989
Дата переиздания диска:
1 февраля 2020
Номер по каталогу:
CR-027
Битрейт аудио:
lossless
Доп. инфо:

• Формат записи | Источник записи: [TR24][OF]
• Наличие водяных знаков: Нет
• Год издания релиза: 2020
• Лейбл: Creatchy Records
• Продолжительность: 01:00:18
• Источник: internet
• WEB релиз: ссылка
• Контейнер: FLAC (*.flac)
• Тип рипа: tracks
• Разрядность: 24/44,1
• Формат: PCM
• Количество каналов: 2.0
• Наличие сканов: front

Лог проверки качества
foobar2000 1.4.2 / Замер динамического диапазона (DR) 1.1.1
Дата отчёта:  2020-03-12 11:22:16

--------------------------------------------------------------------------------
Анализ:   Los Lobotomys & David Garfield / Los Lobotomys (Remastered)
--------------------------------------------------------------------------------

DR         Пики         RMS           Продолжительность трека
--------------------------------------------------------------------------------
DR10      -0.58 дБ   -12.66 дБ      6:16 01-Dismemberment (Remastered)
DR7       -1.06 дБ   -11.71 дБ      7:09 02-Oozer (Remastered)
DR10      -0.64 дБ   -13.05 дБ      0:43 03-Purple Haze (Remastered)
DR8       -0.90 дБ   -11.27 дБ      6:40 04-Big Bone (Remastered)
DR11      -0.84 дБ   -13.78 дБ      6:55 05-Jorainbo (Remastered)
DR10      -0.74 дБ   -13.12 дБ      8:15 06-Lobotomy Stew (Remastered)
DR9       -0.78 дБ   -12.18 дБ      5:42 07-Little Wing (Remastered)
DR8       -0.82 дБ    -9.73 дБ      4:16 08-Smell Yourself (Remastered)
DR7       -0.81 дБ   -12.00 дБ     14:22 09-All Blues (Remastered)
--------------------------------------------------------------------------------

Количество треков: 9
Реальные значения DR: DR9

Частота:   44100 Гц
Каналов:   2
Разрядность:   24
Битрейт:   1645 кбит/с
Кодек:   FLAC
================================================================================
Any questions - support@pro-jazz.com. Есть вопросы - support@pro-jazz.com
22:53
473
Нет комментариев. Ваш будет первым!