Вы используете незарегистрированную версию компонента "Вкладки"!

Поиск

2012 Frøydis Grorud - Melting Sound {Jazzland} [24-96]

2012 Frøydis Grorud - Melting Sound {Jazzland} [24-96]
Битрейт аудио:
lossless
Доп. инфо:

• Формат записи | Источник записи: [TR24][OF]
• Наличие водяных знаков: Нет
• Год издания релиза: 2012
• Лейбл: Jazzland Recordings
• Продолжительность: 00:50:09
• Источник: internet
• WEB релиз: ссылка
• Контейнер: FLAC (*.flac)
• Тип рипа: tracks
• Разрядность: 24/96
• Формат: PCM
• Количество каналов: 2.0
• Наличие сканов: front

Лог проверки качества
foobar2000 1.4.2 / Замер динамического диапазона (DR) 1.1.1
Дата отчёта:  2020-03-12 09:46:35

--------------------------------------------------------------------------------
Анализ:   Frøydis Grorud / Melting Sound
--------------------------------------------------------------------------------

DR         Пики         RMS           Продолжительность трека
--------------------------------------------------------------------------------
DR12      -2.76 дБ   -19.51 дБ      5:02 01-Engholmen
DR13      -1.03 дБ   -19.86 дБ      6:11 02-Bratsberg
DR11      -1.02 дБ   -16.84 дБ      8:06 03-Melting Sound
DR14      -3.64 дБ   -22.36 дБ      3:47 04-I see you
DR11      -1.03 дБ   -14.71 дБ      2:13 05-Ulven
DR15      -1.02 дБ   -20.28 дБ      5:10 06-Bakgård
DR11      -1.02 дБ   -14.56 дБ      6:48 07-Norwegian wood
DR14      -1.03 дБ   -19.79 дБ      5:01 08-Falkum
DR13      -1.02 дБ   -17.68 дБ      3:38 09-Inventio
DR12      -1.80 дБ   -18.46 дБ      4:15 10-Ypsilon song
--------------------------------------------------------------------------------

Количество треков: 10
Реальные значения DR: DR13

Частота:   96000 Гц
Каналов:   2
Разрядность:   24
Битрейт:   2348 кбит/с
Кодек:   FLAC
================================================================================
Any questions - support@pro-jazz.com. Есть вопросы - support@pro-jazz.com
17:45
227
Нет комментариев. Ваш будет первым!