Поиск

2020 Jazz At Lincoln Center Orchestra - Black, Brown and Beige {Blue Engine} [24-96]

2020 Jazz At Lincoln Center Orchestra - Black, Brown and Beige {Blue Engine} [24-96]
Стили:
Битрейт аудио:
lossless
Треклист:

◈ 01 - Work Song (00:08:05)
◈ 02 - Come Sunday (00:06:36)
◈ 03 - Light (00:07:02)
◈ 04 - West Indian Dance (00:02:55)
◈ 05 - Emancipation Celebration (00:02:08)
◈ 06 - Blues Theme Mauve (00:05:55)
◈ 07 - Various Themes (00:06:51)
◈ 08 - Sugar Hill Penthouse (00:04:19)
◈ 09 - Finale (00:04:22)

Доп. инфо:

• Формат записи | Источник записи: [TR24][OF]
• Наличие водяных знаков: Нет
• Год издания релиза: 2020
• Лейбл: Blue Engine Records
• Продолжительность: 00:48:16
• Контейнер: FLAC (*.flac)
• Тип рипа: tracks
• Разрядность: 24/96
• Формат: WAV (flac.ape.wv)
• Количество каналов: 2.0
• Наличие сканов: front

https://www.qobuz.com/gb-en/album/black-brown-and-beige-jazz-at-lincoln-center-orchestra-wynton-marsalis/orpsfrb8ytleb

Лог проверки качества
foobar2000 1.4.2 / Замер динамического диапазона (DR) 1.1.1
Дата отчёта:  2020-03-12 09:48:57

--------------------------------------------------------------------------------
Анализ:   Jazz At Lincoln Center Orchestra / Black, Brown and Beige
--------------------------------------------------------------------------------

DR         Пики         RMS           Продолжительность трека
--------------------------------------------------------------------------------
DR11      -0.31 дБ   -15.00 дБ      8:05 01-Work Song
DR14      -0.32 дБ   -19.48 дБ      6:37 02-Come Sunday
DR10      -0.31 дБ   -13.81 дБ      7:02 03-Light
DR10      -0.32 дБ   -13.17 дБ      2:55 04-West Indian Dance
DR10      -0.31 дБ   -13.09 дБ      2:08 05-Emancipation Celebration
DR11      -0.32 дБ   -15.77 дБ      5:56 06-Blues Theme Mauve
DR10      -0.31 дБ   -13.52 дБ      6:52 07-Various Themes
DR10      -0.32 дБ   -13.65 дБ      4:20 08-Sugar Hill Penthouse
DR9       -0.28 дБ   -12.78 дБ      4:22 09-Finale
--------------------------------------------------------------------------------

Количество треков: 9
Реальные значения DR: DR11

Частота:   96000 Гц
Каналов:   2
Разрядность:   24
Битрейт:   2814 кбит/с
Кодек:   FLAC
================================================================================
Приватный:
Нет (DHT включён)
Размер:
950.00 Мб (996,142,552 байт) » файлов: 10
Участники:
0 раздают, 0 качают (0 участников всего)
Внешние участники:
5 раздают, 2 качают (7 участников всего) [ Обновить ]
No seeders - write a personal message to user M0p94ok. Нет сидеров - пишите личное сообщение пользователю M0p94ok.
07:28
34
Нет комментариев. Ваш будет первым!