Поиск

1958 The Dave Brubeck Quartet - Newport 1958 (2020) {Legacy} [24-96]

1958 The Dave Brubeck Quartet - Newport 1958 (2020) {Legacy} [24-96]
Стили:
Дата записи диска:
3 июля 1958
Место записи:
Newport Jazz Festival
Битрейт аудио:
lossless
Треклист:

01 - Things Ain't What They Used to Be (Live) 07:02
02 - Jump for Joy (Live) 05:20
03 - Perdido (Live) 12:40
04 - Liberian Suite: Dance No. 3 (Live) 06:22
05 - The Duke (Live) 06:26
06 - Flamingo (Live) 06:26
07 - C Jam Blues (Live) 04:13

Доп. инфо:

Формат записи/Источник записи: [TR24][OF]
Издание: Remastered
Год издания/переиздания диска: 1958/2020
Издатель (лейбл): Legacy Recordings
Продолжительность: 00:48:29
Наличие сканов в содержимом раздачи: Нет

Контейнер: FLAC (*.flac)
Тип рипа: tracks
Разрядность: 24/96
Количество каналов: 2.0

Источник (релизер): Qobuz

Лог проверки качества
foobar2000 1.4.3 / Dynamic Range Meter 1.1.1
log date: 2020-03-13 07:45:29

--------------------------------------------------------------------------------
Analyzed: The Dave Brubeck Quartet / Newport 1958
--------------------------------------------------------------------------------

DR         Peak         RMS     Duration Track
--------------------------------------------------------------------------------
DR14      -2.26 dB   -20.92 dB      7:02 01-Things Ain't What They Used to Be  (Live)
DR13      -3.78 dB   -21.14 dB      5:20 02-Jump for Joy  (Live)
DR13      -5.12 dB   -22.39 dB     12:41 03-Perdido  (Live)
DR13      -2.72 dB   -20.06 dB      6:22 04-Liberian Suite: Dance No. 3  (Live)
DR14      -3.17 dB   -20.93 dB      6:27 05-The Duke  (Live)
DR14      -3.52 dB   -21.50 dB      6:26 06-Flamingo  (Live)
DR16      -1.54 dB   -21.24 dB      4:13 07-C Jam Blues  (Live)
--------------------------------------------------------------------------------

Number of tracks:  7
Official DR value: DR14

Samplerate:        96000 Hz
Channels:          2
Bits per sample:   24
Bitrate:           3069 kbps
Codec:             FLAC
================================================================================
Приватный:
Нет (DHT включён)
Размер:
1.01 Гб (1,081,396,331 байт) » файлов: 11
Участники:
0 раздают, 0 качают (0 участников всего)
Внешние участники:
10 раздают, 3 качают (13 участников всего) [ Обновить ]
Скорость:
0/c 65.00 байт/c
No seeders - write a personal message to user M0p94ok. Нет сидеров - пишите личное сообщение пользователю M0p94ok.
07:54
33
Нет комментариев. Ваш будет первым!