Поиск

2022 Alexanderplatz Jazz Orchestra - OSMOS {Alfamusic} [24-48]

2022 Alexanderplatz Jazz Orchestra - OSMOS {Alfamusic} [24-48]
Стили:
Дата издания диска:
28 января 2022
Носитель:
WEB
Формат:
PCM
Тип рипа:
tracks
Контейнер:
FLAC (*.flac)
Количество каналов:
2.0
Разрядность/ЧД:
24/48
Битрейт аудио:
lossless
Время звучания:
00:53:55
Наличие сканов:
только обложка

Треклист:

01. APJO  05:12
02. Open Spaces (Opening)  01:48
03. Open Spaces (Variation 1)  08:08
04. Open Spaces (Variation 2)  06:11
05. Open Spaces (Variation 3)  03:48
06. The Rain of May  03:41
07. Dark Eyes  04:51
08. Cesare e Vittorio  04:17
09. Alone  04:09
10. Sketch of Colours  11:47

Состав:

Cesare e Vittorio · Alexanderplatz Jazz Orchestra · Paolo Vivaldi · Paolo Vivaldi · Paolo Vivaldi · AlfaMusic Studio · Alessandro Guardia · Francesco Bruno · EUGENIO RENZETTI · Riccardo Nebbiosi · Elisabetta Mattei · Lorenzo Corsi · Francesco Fratini · GIACOMO SERINO · Giovanni Cicchirillo · Diego Bettazzi · Andrea Saffirio · Vittorio Cuculo · Claudia Petrini · Gabriele Borro · Claudio Di Lelio · Federico Malatesta · Silvia Bruno · Candido Amalia · Moira Candeloro · Valentina Negroni · Fabrizia Pandimiglio · Ludovica Centracchio · Tommaso Quaranta · Giuseppe Romagnoli · Donatella Salta · Fabrizio Salvatore · Eugenio Rubei · Nerina Fernandez

Доп. инфо:

Альбом, выпущенный компанией AlfaMusic, является результатом прекрасной интуиции Эудженио Рубеи. Проект был выбран Министерством культуры и осуществляется под престижным руководством маэстро Франко Пьяна в сотрудничестве с маэстро Паоло Вивальди, Джузеппе Тортора и Лукой Риццо.

Il disco, prodotto da AlfaMusic, è frutto di una meravigliosa intuizione voluta da Eugenio Rubei. Il progetto è stato selezionato dal Ministero Dei Beni Culturali ed è affidato alla prestigiosa direzione del Maestro Franco Piana in collaborazione con il Maestro Paolo Vivaldi, Giuseppe Tortora e Luca Rizzo.

Лог проверки качества
foobar2000 1.4.2 / Dynamic Range Meter 1.1.1
log date: 2022-01-12 08:50:24
--------------------------------------------------------------------------------
Analyzed: Alexanderplatz Jazz Orchestra / OSMOS
--------------------------------------------------------------------------------
DR         Peak         RMS     Duration Track
--------------------------------------------------------------------------------
DR10      -0.49 dB   -12.29 dB      5:12 01-APJO
DR11      -0.49 dB   -14.50 dB      1:48 02-Open Spaces (Opening)
DR9       -0.49 dB   -12.79 dB      8:08 03-Open Spaces (Variation 1)
DR11      -0.49 dB   -15.23 dB      6:11 04-Open Spaces (Variation 2)
DR10      -0.49 dB   -14.36 dB      3:49 05-Open Spaces (Variation 3)
DR10      -0.49 dB   -12.95 dB      3:42 06-The Rain of May
DR10      -0.77 dB   -13.89 dB      4:51 07-Dark Eyes
DR11      -0.49 dB   -15.15 dB      4:17 08-Cesare e Vittorio
DR9       -0.49 dB   -12.33 dB      4:10 09-Alone
DR11      -0.49 dB   -15.09 dB     11:47 10-Sketch of Colours
--------------------------------------------------------------------------------
Number of tracks:  10
Official DR value: DR10
Samplerate:        48000 Hz
Channels:          2
Bits per sample:   24
Bitrate:           1597 kbps
Codec:             FLAC
================================================================================
Download available for power users only.
To become a power user - read FAQ.
11:12
131
Нет комментариев. Ваш будет первым!