Поиск

2021 Jérôme Berney - Jazz autour de Ravel {VDE-GALLO} [24-44.1]

2021 Jérôme Berney - Jazz autour de Ravel {VDE-GALLO} [24-44.1]
Стили:
Дата издания диска:
9 августа 2021
Носитель:
WEB
Формат:
PCM
Тип рипа:
tracks
Контейнер:
FLAC (*.flac)
Количество каналов:
2.0
Разрядность/ЧД:
24/44,1
Битрейт аудио:
lossless
Время звучания:
01:11:29
Наличие сканов:
только обложка

01. Piano Trio in A Minor, M. 67: I. Modéré, Pt. I feat. Trami Nguyen, Marion Devaud, Aurélien Ferrette  04:03
02. Irruption I feat. Trami Nguyen, Alexis Gfeller, Marion Devaud, Aurélien Ferrette, Fabien Sevilla  07:05
03. Piano Trio in A Minor, M. 67: I. Modéré, Pt. II feat. Trami Nguyen, Marion Devaud, Aurélien Ferrette  04:49
04. Irruption II feat. Trami Nguyen, Alexis Gfeller, Marion Devaud, Aurélien Ferrette, Fabien Sevilla  11:48
05. Piano Trio in A Minor, M. 67: II. Pantoum, Pt. I feat. Trami Nguyen, Marion Devaud, Aurélien Ferrette  02:06
06. Irruption III feat. Trami Nguyen, Alexis Gfeller, Marion Devaud, Aurélien Ferrette, Fabien Sevilla  05:34
07. Piano Trio in A Minor, M. 67: II. Pantoum, Pt. II feat. Trami Nguyen, Marion Devaud, Aurélien Ferrette  02:34
08. Piano Trio in A Minor, M. 67: III. Passacaille, Pt. I / Irruption IV feat. Trami Nguyen, Alexis Gfeller, Marion Devaud, Aurélien Ferrette, Fabien Sevilla  09:00
09. Piano Trio in A Minor, M. 67: III. Passacaille, Pt. II feat. Trami Nguyen, Marion Devaud, Aurélien Ferrette  06:18
10. Irruption V feat. Trami Nguyen, Alexis Gfeller, Marion Devaud, Aurélien Ferrette, Fabien Sevilla  10:34
11. Piano Trio in A Minor, M. 67: IV. Final, Pt. I feat. Trami Nguyen, Marion Devaud, Aurélien Ferrette  03:00
12. Irruption VI feat. Trami Nguyen, Alexis Gfeller, Marion Devaud, Aurélien Ferrette, Fabien Sevilla 02:01
13. Piano Trio in A Minor, M. 67: IV. Final, Pt. II feat. Trami Nguyen, Marion Devaud, Aurélien Ferrette  02:30

Лог проверки качества
foobar2000 1.4.2 / Dynamic Range Meter 1.1.1
log date: 2022-01-11 21:16:27
--------------------------------------------------------------------------------
Analyzed: Jérôme Berney / Jazz autour de Ravel
--------------------------------------------------------------------------------
DR         Peak         RMS     Duration Track
--------------------------------------------------------------------------------
DR13      -3.14 dB   -21.19 dB      4:04 01-Piano Trio in A Minor, M. 67: I. ModГ©rГ©, Pt. I
DR11      -1.25 dB   -15.24 dB      7:06 02-Irruption I
DR13      -2.43 dB   -20.69 dB      4:50 03-Piano Trio in A Minor, M. 67: I. ModГ©rГ©, Pt. II
DR12      -1.37 dB   -16.35 dB     11:49 04-Irruption II
DR13      -3.32 dB   -20.02 dB      2:07 05-Piano Trio in A Minor, M. 67: II. Pantoum, Pt. I
DR13      -1.62 dB   -18.07 dB      5:35 06-Irruption III
DR13      -2.53 dB   -19.33 dB      2:34 07-Piano Trio in A Minor, M. 67: II. Pantoum, Pt. II
DR11      -1.34 dB   -17.44 dB      9:01 08-Piano Trio in A Minor, M. 67: III. Passacaille, Pt. I / Irruption IV
DR14      -2.68 dB   -23.63 dB      6:19 09-Piano Trio in A Minor, M. 67: III. Passacaille, Pt. II
DR11      -1.04 dB   -14.17 dB     10:35 10-Irruption V
DR11      -4.92 dB   -18.83 dB      3:00 11-Piano Trio in A Minor, M. 67: IV. Final, Pt. I
DR10      -1.43 dB   -13.37 dB      2:02 12-Irruption VI
DR13      -2.66 dB   -18.51 dB      2:30 13-Piano Trio in A Minor, M. 67: IV. Final, Pt. II
--------------------------------------------------------------------------------
Number of tracks:  13
Official DR value: DR12
Samplerate:        48000 Hz
Channels:          2
Bits per sample:   24
Bitrate:           1584 kbps
Codec:             FLAC
================================================================================
Приватный:
Нет (DHT включён)
Размер:
764.56 Мб (801,703,778 байт) » файлов: 14
Участники:
38 раздают, 0 качают (38 участников всего)
Внешние участники:
3 раздают, 1 качают (4 участников всего) [ Обновить ]
12:50
357
Нет комментариев. Ваш будет первым!