Поиск

2022 Jérôme Berney - Songs of Lights {VDE-GALLO} [24-48]

2022 Jérôme Berney - Songs of Lights {VDE-GALLO} [24-48]
Дата издания диска:
10 января 2022
Носитель:
WEB
Формат:
PCM
Тип рипа:
tracks
Контейнер:
FLAC (*.flac)
Количество каналов:
2.0
Разрядность/ЧД:
24/48
Битрейт аудио:
lossless
Время звучания:
00:37:23
Наличие сканов:
только обложка

01. Equinox Song feat. Tassilo Jüdt, Fabien Sevilla  05:26
02. In the Fire feat. Choral Ensemble Voix de Lausanne, Dominique Tille  06:51
03. Blue Stabat Mater: I. Stabat Mater dolorosa feat. Tassilo Jüdt, Fabien Sevilla, Choral Ensemble Voix de Lausanne, Dominique Tille  05:34
04. Blue Stabat Mater: II. Pia Mater feat. Tassilo Jüdt, Fabien Sevilla, Choral Ensemble Voix de Lausanne, Dominique Tille  02:10
05. Blue Stabat Mater: III. Vidit Jesum in tormentis feat. Tassilo Jüdt, Fabien Sevilla, Choral Ensemble Voix de Lausanne, Dominique Tille  03:38
06. Blue Stabat Mater: IV. Eia Mater feat. Tassilo Jüdt, Fabien Sevilla, Choral Ensemble Voix de Lausanne, Dominique Tille  03:47
07. Blue Stabat Mater: V. Sancta Mater feat. Tassilo Jüdt, Fabien Sevilla, Choral Ensemble Voix de Lausanne, Dominique Tille  03:15
08. Blue Stabat Mater: VI. Virgo virginum feat. Tassilo Jüdt, Fabien Sevilla, Choral Ensemble Voix de Lausanne, Dominique Tille  03:50
09. Blue Stabat Mater: VII. Paradisi gloria feat. Tassilo Jüdt, Fabien Sevilla, Choral Ensemble Voix de Lausanne, Dominique Tille  02:48

Лог проверки качества
foobar2000 1.4.2 / Dynamic Range Meter 1.1.1
log date: 2022-01-12 08:51:23
--------------------------------------------------------------------------------
Analyzed: JГ©rГґme Berney / Songs of Lights
--------------------------------------------------------------------------------
DR         Peak         RMS     Duration Track
--------------------------------------------------------------------------------
DR12      -1.01 dB   -14.89 dB      5:27 01-Equinox Song
DR11      -1.01 dB   -15.26 dB      6:51 02-In the Fire
DR10      -1.51 dB   -13.46 dB      5:35 03-Blue Stabat Mater: I. Stabat Mater dolorosa
DR10      -2.95 dB   -17.33 dB      2:10 04-Blue Stabat Mater: II. Pia Mater
DR10      -1.51 dB   -14.04 dB      3:38 05-Blue Stabat Mater: III. Vidit Jesum in tormentis
DR10      -1.51 dB   -13.30 dB      3:48 06-Blue Stabat Mater: IV. Eia Mater
DR11      -1.51 dB   -14.71 dB      3:16 07-Blue Stabat Mater: V. Sancta Mater
DR12      -1.51 dB   -17.80 dB      3:51 08-Blue Stabat Mater: VI. Virgo virginum
DR12      -1.51 dB   -17.05 dB      2:49 09-Blue Stabat Mater: VII. Paradisi gloria
--------------------------------------------------------------------------------
Number of tracks:  9
Official DR value: DR11
Samplerate:        48000 Hz
Channels:          2
Bits per sample:   24
Bitrate:           1396 kbps
Codec:             FLAC
================================================================================
Скачивание доступно после регистрации!!
Приватный:
Нет (DHT включён)
Размер:
420.49 Мб (440,917,810 байт) » файлов: 10
Участники:
0 раздают, 0 качают (0 участников всего)
Внешние участники:
3 раздают, 1 качают (4 участников всего) [ Обновить ]
13:15
434
Нет комментариев. Ваш будет первым!