Поиск

2021 Vestbo Trio - Reflector {Dog Hound} [24-44.1]

2021 Vestbo Trio - Reflector {Dog Hound} [24-44.1]
Стили:
Место записи:
Lundgaard Studios, Denmark
Носитель:
WEB
Формат:
PCM
Тип рипа:
tracks
Контейнер:
FLAC (*.flac)
Количество каналов:
2.0
Разрядность/ЧД:
24/44,1
Битрейт аудио:
lossless
Наличие сканов:
только обложка

01. Do It For The Fun  03:43
02. Jaffe  02:59
03. Mirrors  05:03
04. My Blue Wave feat. Bjørn Fjæstad  07:00
05. To Make You Feel My Love feat. Bjørn Fjæstad  03:25
06. Color Burn  03:25
07. If You Go Away feat. Bjørn Fjæstad  03:08
08. Babylon  02:21
09. Carl  01:31
10. The Healing Day feat. Bjørn Fjæstad  03:48
11. Redscale  02:00

 

Состав:
  • Michael Vestbo: Guitars
  • Eddi Jarl: Drums and percussion
  • Jesper Smalbro: Bass
  • Bjørn Fjæstad: Vocals (4, 5, 7, 10)
  • Produced by Lars Skjærbæk
  • Engineered by Thomas Alstrup
  • Mixed by Thomas Alstrup
  • Mastered by Björn Engelmann at Cutting Room in Stockholm, Sweden

Michael Vestbo plays Suhr and Kehlet guitars.
Eddi Jarl plays Avantgarde cymbals and Drum Limousine drums.

Лог проверки качества
foobar2000 1.4.2 / Dynamic Range Meter 1.1.1
log date: 2022-01-12 08:52:46
--------------------------------------------------------------------------------
Analyzed: Vestbo Trio / Reflector
--------------------------------------------------------------------------------
DR         Peak         RMS     Duration Track
--------------------------------------------------------------------------------
DR9       -0.99 dB   -12.53 dB      3:44 01-Do It For The Fun
DR10      -0.99 dB   -12.31 dB      3:00 02-Jaffe
DR10      -1.00 dB   -14.00 dB      5:03 03-Mirrors
DR11      -0.99 dB   -14.24 dB      7:00 04-My Blue Wave
DR9       -0.98 dB   -13.03 dB      3:26 05-To Make You Feel My Love
DR8       -0.46 dB   -10.20 dB      3:25 06-Color Burn
DR9       -0.98 dB   -13.03 dB      3:09 07-If You Go Away
DR8       -0.98 dB   -11.31 dB      2:21 08-Babylon
DR8       -1.00 dB   -12.43 dB      1:31 09-Carl
DR8       -0.96 dB   -11.30 dB      3:48 10-The Healing Day
DR9       -0.98 dB   -12.78 dB      2:00 11-Redscale
--------------------------------------------------------------------------------
Number of tracks:  11
Official DR value: DR9
Samplerate:        44100 Hz
Channels:          2
Bits per sample:   24
Bitrate:           1373 kbps
Codec:             FLAC
================================================================================
Приватный:
Нет (DHT включён)
Размер:
372.04 Мб (390,110,501 байт) » файлов: 12
Участники:
0 раздают, 0 качают (0 участников всего)
Внешние участники:
5 раздают, 1 качают (6 участников всего) [ Обновить ]
14:36
365
Нет комментариев. Ваш будет первым!