Поиск

2021 Ray Anthony And His Orchestra - The Swing Band Project, Vol. 6: For Dancers Only {Jube Legends} [24-48]

2021 Ray Anthony And His Orchestra - The Swing Band Project, Vol. 6: For Dancers Only {Jube Legends} [24-48]
Стили:
Дата издания диска:
3 декабря 2021
Издатель (лейбл):
Битрейт аудио:
lossless

Состав:
  • Ray Anthony — trumpet
  • And His Orchestra
Лог проверки качества
foobar2000 1.4.6 / Dynamic Range Meter 1.1.1
log date: 2022-01-10 13:35:40
--------------------------------------------------------------------------------
Analyzed: Ray Anthony amd His Orchestra / The Swing Band Project, Vol. 6: For Dancers Only
--------------------------------------------------------------------------------
DR         Peak         RMS     Duration Track
--------------------------------------------------------------------------------
DR12      -0.01 dB   -13.83 dB      2:00 01-Trumpet Boogie
DR11      -0.01 dB   -12.82 dB      2:57 02-Stardust
DR12      -0.01 dB   -14.22 dB      2:24 03-The Fox
DR10      -0.01 dB   -12.76 dB      2:30 04-Mister Anthony's Boogie
DR12      -0.01 dB   -14.65 dB      2:13 05-Mambo Combo
DR10      -0.01 dB   -13.75 dB      2:46 06-Sleepy Time Gal
DR10      -0.01 dB   -13.51 dB      2:06 07-Vilja (From "The Merry Widow")
DR11      -0.01 dB   -12.62 dB      2:48 08-For Dancers Only
DR13      -0.01 dB   -16.65 dB      2:24 09-Dream Dancing
DR12      -0.01 dB   -14.93 dB      2:38 10-Busman's Holiday
DR13      -0.01 dB   -15.41 dB      2:43 11-Cook's Tour
DR11      -0.01 dB   -12.77 dB      2:45 12-Houseparty Hop
DR13      -0.01 dB   -14.20 dB      1:40 13-The Bunny Hop
DR12      -0.01 dB   -14.57 dB      2:21 14-This Could Be the Night
DR11      -0.01 dB   -12.88 dB      1:34 15-(Love Is) The Tender Trap
DR11      -0.01 dB   -13.09 dB      2:34 16-I've Got You Under My Skin
DR10      -0.01 dB   -12.83 dB      2:05 17-Blue Moon
DR13      -0.01 dB   -15.57 dB      2:14 18-Club Tonic Blues
DR12      -0.01 dB   -13.98 dB      1:25 19-Just You, Just Me
DR12      -0.01 dB   -13.94 dB      1:42 20-When the Saints Go Marchin' In
--------------------------------------------------------------------------------
Number of tracks:  20
Official DR value: DR12
Samplerate:        48000 Hz
Channels:          2
Bits per sample:   24
Bitrate:           838 kbps
Codec:             FLAC
================================================================================
15:57
379
Нет комментариев. Ваш будет первым!