Поиск

2009 Silje Nergaard - A Thousand True Stories (2022) {Columbia} [24-44.1]

2009 Silje Nergaard - A Thousand True Stories (2022) {Columbia} [24-44.1]
Стили:
Дата записи диска:
10 июня - 14 июня 2000; 19 августа - 22 августа 2008
Место записи:
Rainbow Studios, Oslo, Norway; MCO Studio 1, Hilversum, Netherlands
Дата издания диска:
9 февраля 2009
Издатель (лейбл):
Битрейт аудио:
lossless

Состав:
  •     Bass – Finn Guttormsen
  •     Cello – Annie Tångberg (tracks: Annie Tangberg), Bastiaan van der Werf, Emile Visser, Wim Grin
  •     Conductor [Metropole Orchestra Strings], Arranged By [Metropole Orchestra Strings] – Vince Mendoza
  •     Contrabass – Peter Baas, Pieter Smithuijsen, Tjerk de Vos
  •     Drums – Jarle Vespestad
  •     Engineer [Assistant] – Gert de Bruijn*
  •     Engineer, Mixed By – Alar Suurna
  •     Backing Vocals – Fredrik Otterstad, Heine Totland
  •     Trumpet – Mathias Eick
  •     Guitar, Backing Vocals – Håvar Bendiksen
  •     Harp – Joke Schonewille
  •     Mastered By – Bjørn Engelmann
  •     Other [Hair] – Viveke Trønsdal
  •     Other [Make up/Styling] – Hilde Ottem
  •     Piano – Helge Lien
  •     Producer – Pål Svenre, Silje Nergaard
  •     Recording Supervisor – Hugh den Ouden
  •     Viola – Iris Schut, Isabella Petersen, Julia Jowett, Mieke Honingh, Norman Jansen
  •     Violin [1st] – David Peijnenborgh, Denis Koenders, Linda Dumessie, Ruben Margarita, Sarah Koch, Seija Teeuwen, Vera Laporeva
  •     Violin [1st], Concertmaster – Arlia De Ruiter
  •     Violin [2nd] – Elisabeth Liefkes-Cats, Hermann van Haaren*, Lucja Domski, Marianne van den Heuvel, Merijn Rombout, Vera van der Bie*, Wim Kok
  •     Vocals, Backing Vocals, Kantele – Silje Nergaard
Лог проверки качества
foobar2000 1.6.6 / Dynamic Range Meter 1.1.1
log date: 2022-03-17 22:53:39
--------------------------------------------------------------------------------
Analyzed: Silje Nergaard / A Thousand True Stories (Remastered 2022)
--------------------------------------------------------------------------------
DR         Peak         RMS     Duration Track
--------------------------------------------------------------------------------
DR9       -0.12 dB   -12.98 dB      4:19 01-Based on a Thousand True Stories (Remastered 2022)
DR8       -0.12 dB   -10.33 dB      4:24 02-Dreamers at Heart (Remastered 2022)
DR10      -0.12 dB   -12.76 dB      4:25 03-Come In From The Garden (Remastered 2022)
DR10      -0.12 dB   -13.54 dB      5:06 04-Frozen (Remastered 2022)
DR9       -0.12 dB   -12.99 dB      6:51 05-Wayside Song (Remastered 2022)
DR9       -0.12 dB   -14.12 dB      6:06 06-Nightroad (Remastered 2022)
DR10      -0.44 dB   -13.26 dB      3:52 07-Old Madrid (Remastered 2022)
DR9       -0.12 dB   -11.71 dB      5:55 08-While You Were Gone (Remastered 2022)
DR8       -0.12 dB   -11.72 dB      5:57 09-Laura (Remastered 2022)
DR7       -0.12 dB   -10.96 dB      4:10 10-Be Still My Heart (Orchestral Version / Remastered 2022)
--------------------------------------------------------------------------------
Number of tracks:  10
Official DR value: DR9
Samplerate:        44100 Hz
Channels:          2
Bits per sample:   24
Bitrate:           1491 kbps
Codec:             FLAC
================================================================================
Приватный:
Нет (DHT включён)
Размер:
554.30 Мб (581,220,959 байт) » файлов: 12
Участники:
0 раздают, 0 качают (0 участников всего)
Внешние участники:
7 раздают, 2 качают (9 участников всего) [ Обновить ]
19:24
462
Нет комментариев. Ваш будет первым!