Поиск

1960 Miles Davis Quintet With John Coltrane - The 1960 German Concerts (2019) {RevOla} [24-44.1]

1960 Miles Davis Quintet With John Coltrane - The 1960 German Concerts (2019) {RevOla} [24-44.1]
Стили:
Дата записи диска:
3 апреля 1960; 30 марта 1960
Место записи:
Kongreß-Saal des Deutschen Museums; Kongresshalle, Frankfurt
Издатель (лейбл):
Битрейт аудио:
lossless

Состав:
Лог проверки качества
foobar2000 1.4.6 / Dynamic Range Meter 1.1.1
log date: 2022-01-07 14:19:01
--------------------------------------------------------------------------------
Analyzed: Miles Davis Quintet / The 1960 German Concerts
--------------------------------------------------------------------------------
DR         Peak         RMS     Duration Track
--------------------------------------------------------------------------------
DR9       -1.17 dB   -14.58 dB     10:36 01-So What? (Live, Remastered)
DR12      -1.91 dB   -18.47 dB      5:43 02-Round Midnight (Live, Remastered)
DR8       -1.60 dB   -13.09 dB     11:04 03-Walkin' (Live, Remastered)
DR11       0.00 dB   -16.97 dB     10:10 04-So What? (2nd Performance, Live, Remastered)
DR10      -0.82 dB   -15.29 dB      9:51 05-All Of You (Live, Remastered)
DR11      -1.38 dB   -16.48 dB     13:00 06-So What? (3rd Performance, Live, Remastered)
--------------------------------------------------------------------------------
Number of tracks:  6
Official DR value: DR10
Samplerate:        44100 Hz
Channels:          2
Bits per sample:   24
Bitrate:           1263 kbps
Codec:             FLAC
================================================================================
Скачивание доступно после регистрации!!
Приватный:
Нет (DHT включён)
Размер:
606.20 Мб (635,650,023 байт) » файлов: 11
Участники:
1 раздают, 1 качают (2 участников всего)
Внешние участники:
11 раздают, 4 качают (15 участников всего) [ Обновить ]
15:38
327
Нет комментариев. Ваш будет первым!