Поиск

2021 Jazz at Lincoln Center Orchestra & Wynton Marsalis - The Democracy! Suite {Blue Engine} [24-96]

2021 Jazz at Lincoln Center Orchestra & Wynton Marsalis - The Democracy! Suite {Blue Engine} [24-96]
Стили:
Дата издания диска:
15 января 2021
Битрейт аудио:
lossless
Доп. инфо:

Формат записи/Источник записи: [TR24][OF]
Год издания/переиздания диска: 2021
Издатель (лейбл): Blue Engine Records
Продолжительность: 00:44:50
Наличие сканов в содержимом раздачи: Нет

Контейнер: FLAC (*.flac)
Тип рипа: tracks
Разрядность: 24/96
Количество каналов: 2.0

Источник (релизер): HIGHRESAUDIO

Лог проверки качества
foobar2000 1.4.3 / Dynamic Range Meter 1.1.1
log date: 2021-01-16 11:38:20

--------------------------------------------------------------------------------
Analyzed: Jazz At Lincoln Center Orchestra / The Democracy! Suite
--------------------------------------------------------------------------------

DR         Peak         RMS     Duration Track
--------------------------------------------------------------------------------
DR10      -0.36 dB   -12.49 dB      5:13 01-Be Present
DR9       -0.88 dB   -12.99 dB      6:58 02-Sloganize, Patronize, Realize, Revolutionize (Black Lives Matters)
DR12      -1.44 dB   -15.64 dB      4:41 03-Ballot Box Bounce
DR9       -1.41 dB   -13.05 dB      6:10 04-That Dance We Do (That You Love Too)
DR11      -1.20 dB   -16.20 dB      5:40 05-Deeper Than Dreams
DR10      -1.07 dB   -13.77 dB      5:27 06-Out Amongst the People (for J Bat)
DR9       -1.07 dB   -13.21 dB      5:58 07-It Come 'Round 'Gin
DR10      -0.47 dB   -12.99 dB      4:49 08-That's When All Will See
--------------------------------------------------------------------------------

Number of tracks:  8
Official DR value: DR10

Samplerate:        96000 Hz
Channels:          2
Bits per sample:   24
Bitrate:           2911 kbps
Codec:             FLAC
================================================================================
No seeders - write personal message to M0p94ok. Any questions - support@pro-jazz.com.
Нет сидеров - пишите в личку M0p94ok. Есть вопросы - support@pro-jazz.com
20:08
171
Нет комментариев. Ваш будет первым!