Поиск

2019 Jerry Bergonzi - The Seven Rays {Savant} [24-44,1]

2019 Jerry Bergonzi - The Seven Rays {Savant} [24-44,1]
Дата записи диска:
1 марта 2015
Место записи:
PBS Studio (Pete's Basement Studio), Westwood, Massachusetts, USA
Дата издания диска:
12 апреля 2019
Издатель (лейбл):
Носитель:
WEB
Формат:
PCM
Тип рипа:
tracks+.cue
Контейнер:
APE (*.ape)
Количество каналов:
2.0
Разрядность/ЧД:
24/44,1
Битрейт аудио:
lossless
Время звучания:
00:53:50
Наличие сканов:
web
Наличие водяных знаков:
нет
Страна-производитель диска (релиза):
USA
Релизёр (источник):
M0p94ok

Треклист:

01. 1st Ray: Intention (06:40)
02. 2nd Ray: Magnetism (07:32)
03. 3rd Ray: Creation (06:35)
04. 4th Ray: Harmony (07:23)
05. 5th Ray: Knowledge (08:07)
06. 6th Ray: Devotion (08:58)
07. 7th Ray: Order (03:56)
08. Sun Worship Ritual (04:35)

Лог проверки качества
foobar2000 1.6.2 / Dynamic Range Meter 1.1.1
log date: 2021-01-23 20:05:03

--------------------------------------------------------------------------------
Analyzed: Jerry Bergonzi / The Seven Rays
--------------------------------------------------------------------------------

DR         Peak         RMS     Duration Track
--------------------------------------------------------------------------------
DR9       -1.40 dB   -12.29 dB      6:40 01-1st Ray: Intention
DR10      -1.45 dB   -13.69 dB      7:34 02-2nd Ray: Magnetism
DR9       -1.03 dB   -12.36 dB      6:36 03-3rd Ray: Creation
DR8       -1.36 dB   -13.31 dB      7:25 04-4th Ray: Harmony
DR9       -1.36 dB   -12.42 dB      8:09 05-5th Ray: Knowledge
DR9       -1.45 dB   -12.64 dB      8:59 06-6th Ray: Devotion
DR10      -0.93 dB   -13.68 dB      3:58 07-7th Ray: Order
DR10      -0.78 dB   -14.38 dB      4:35 08-Sun Worship Ritual
--------------------------------------------------------------------------------

Number of tracks:  8
Official DR value: DR9

Samplerate:        44100 Hz
Channels:          2
Bits per sample:   24
Bitrate:           1552 kbps
Codec:             FLAC
================================================================================
Приватный:
Нет (DHT включён)
Размер:
633.47 Мб (664,238,736 байт) » файлов: 11
Участники:
1 раздают, 0 качают (1 участников всего)
Внешние участники:
--- [ Обновить ]
Скорость:
0/c 9.70 Кб/c
For power users only: no seeders - write to support@pro-jazz.com. Для power user: нет сидеров - пишите на support@pro-jazz.com.
21:13
34
Нет комментариев. Ваш будет первым!