Поиск

2015 Ely Bruna - Synesthesia {Irma IRM 1280} [24-44,1]

2015 Ely Bruna - Synesthesia {Irma IRM 1280} [24-44,1]
Номер по каталогу:
IRM 1280
Носитель:
WEB
Формат:
PCM
Тип рипа:
tracks+.cue
Контейнер:
APE (*.ape)
Количество каналов:
2.0
Разрядность/ЧД:
24/44,1
Битрейт аудио:
lossless
Время звучания:
01:17:15
Наличие сканов:
web
Страна-производитель диска (релиза):
Italy
Релизёр (источник):
M0p94ok
Лог проверки качества
foobar2000 1.3.16 / Dynamic Range Meter 1.1.1
log date: 2019-04-22 14:39:20

--------------------------------------------------------------------------------
Analyzed: Ely Bruna / Synesthesia
--------------------------------------------------------------------------------

DR         Peak         RMS     Duration Track
--------------------------------------------------------------------------------
DR6       -0.19 dB    -9.21 dB      4:29 01-Sailing
DR8       -0.19 dB    -9.27 dB      3:34 02-More Than a Woman
DR7       -0.19 dB    -9.14 dB      3:50 03-A Little Bit Soul (feat. Nick the Nightfly)
DR7       -0.20 dB    -9.20 dB      3:38 04-Titanium
DR7       -0.19 dB    -9.70 dB      4:13 05-We Are the World (feat. Walter Ricci)
DR7       -0.19 dB    -9.86 dB      3:20 06-Good Times (feat. Wendy D. Lewis)
DR8       -0.14 dB    -9.55 dB      2:58 07-Tomorrow Is Another Day (feat. Réseau)
DR7       -0.19 dB    -9.19 dB      4:25 08-I Will Always Love You
DR7       -0.16 dB    -8.88 dB      4:19 09-American Boy (feat. Neja)
DR7       -0.18 dB    -9.45 dB      3:42 10-Just the Two of Us
DR6       -0.19 dB    -8.69 dB      3:55 11-Time of My Life (feat. Frank Mc Comb)
DR7       -0.19 dB    -9.36 dB      4:06 12-Feel Like Making Love (feat. Frankie Lovecchio)
DR7       -0.19 dB    -8.64 dB      3:45 13-What'cha Gonna Do for Me
DR6       -0.20 dB   -10.41 dB      3:34 14-Give Me Tonight
DR7       -0.18 dB    -8.01 dB      3:09 15-Found Love
DR8       -0.19 dB   -10.15 dB      3:51 16-Hold the Line (feat. Elsa Baldini)
DR7       -0.20 dB    -8.98 dB      3:16 17-Never Ending Story
DR7       -0.17 dB    -8.71 dB      3:41 18-Happy
DR8       -0.18 dB    -9.59 dB      4:31 19-Sweet Summer Feeling (feat. Matteo Brancaleoni)
DR7       -0.19 dB    -8.74 dB      5:13 20-Survivor (feat. Alan Scaffardi)
--------------------------------------------------------------------------------

Number of tracks:  20
Official DR value: DR7

Samplerate:        44100 Hz
Channels:          2
Bits per sample:   24
Bitrate:           922 kbps
Codec:             FLAC
================================================================================
No seeders - write personal message to M0p94ok. Any questions - support@pro-jazz.com.
Нет сидеров - пишите в личку M0p94ok. Есть вопросы - support@pro-jazz.com
19:36
296
Нет комментариев. Ваш будет первым!