Поиск

2020 Rossano Sportiello - That's It! {Arbors ARCD 19479} [24-96]

2020 Rossano Sportiello - That's It! {Arbors ARCD 19479} [24-96]
Стили:
Дата записи диска:
23 июля - 24 июля 2020
Место записи:
Sear Sound Studio, New York City, NY, USA
Дата издания диска:
15 января 2021
Издатель (лейбл):
Носитель:
WEB
Формат:
PCM
Тип рипа:
tracks+.cue
Контейнер:
APE (*.ape)
Количество каналов:
2.0
Разрядность/ЧД:
24/96
Битрейт аудио:
lossless
Время звучания:
01:09:10
Наличие сканов:
web
Наличие водяных знаков:
нет
Релизёр (источник):
M0p94ok

Треклист:

01. Smoke Gets In Your Eyes  05:32
02. She Is There  04:22
03. Stars Fell On Alabama  04:19
04. Song For Emily  04:38
05. Guilty  04:19
06. Fine and Dandy  03:01
07. I Couldn't Sleep A Wink Last Night  03:44
08. That's It!  04:11
09. Take, O Take Those Lips Away  03:52
10. Someone To Watch Over Me  04:55
11. Nonno Bob's Delight  02:44
12. How Do You Keep The Music Playing  03:54
13. Thou Swell  02:55
14. Medley: A) Bewitched, Bothered and Bewildered; B) Prelude N. 1 In C Major, BWV 846  05:50
15. Ain't Cha Glad?  03:22
16. The Sheik Of Araby  02:54
17. Tomorrow, It Will Be Bright With You  04:38

Лог проверки качества
foobar2000 1.6.2 / Dynamic Range Meter 1.1.1
log date: 2021-01-21 23:00:02

--------------------------------------------------------------------------------
Analyzed: Rossano Sportiello / That's It!
--------------------------------------------------------------------------------

DR         Peak         RMS     Duration Track
--------------------------------------------------------------------------------
DR11      -1.36 dB   -14.60 dB      5:33 01-Smoke Gets In Your Eyes
DR10      -1.36 dB   -13.55 dB      4:22 02-She Is There
DR10      -1.36 dB   -13.65 dB      4:20 03-Stars Fell On Alabama
DR9       -1.36 dB   -12.82 dB      4:38 04-Song For Emily
DR10      -1.36 dB   -13.65 dB      4:19 05-Guilty
DR9       -1.36 dB   -12.38 dB      3:01 06-Fine and Dandy
DR11      -1.36 dB   -15.10 dB      3:45 07-I Couldn't Sleep A Wink Last Night
DR9       -1.36 dB   -12.35 dB      4:11 08-That's It!
DR11      -1.36 dB   -14.64 dB      3:52 09-Take, O Take Those Lips Away
DR10      -1.36 dB   -13.35 dB      4:56 10-Someone To Watch Over Me
DR9       -1.36 dB   -12.96 dB      2:45 11-Nonno Bob's Delight
DR11      -1.36 dB   -15.37 dB      3:54 12-How Do You Keep The Music Playing
DR8       -1.36 dB   -11.98 dB      2:56 13-Thou Swell
DR11      -1.36 dB   -15.09 dB      5:51 14-Medley: A) Bewitched, Bothered and Bewildered; B) Prelude N. 1 In C Major, BWV 846
DR11      -1.36 dB   -14.17 dB      3:23 15-Ain't Cha Glad?
DR9       -1.36 dB   -13.06 dB      2:54 16-The Sheik Of Araby
DR9       -1.36 dB   -13.26 dB      4:38 17-Tomorrow, It Will Be Bright With You
--------------------------------------------------------------------------------

Number of tracks:  17
Official DR value: DR10

Samplerate:        96000 Hz
Channels:          2
Bits per sample:   24
Bitrate:           2486 kbps
Codec:             FLAC
================================================================================
Приватный:
Нет (DHT включён)
Размер:
1.22 Гб (1,315,314,654 байт) » файлов: 19
Участники:
0 раздают, 0 качают (0 участников всего)
Внешние участники:
--- [ Обновить ]
For power users only: no seeders - write to support@pro-jazz.com. Для power user: нет сидеров - пишите на support@pro-jazz.com.
17:37
58
Нет комментариев. Ваш будет первым!