Поиск

2021 Menagerie - Many Worlds {Freestyle} [24-44,1]

2021 Menagerie - Many Worlds {Freestyle} [24-44,1]
Стили:
Дата издания диска:
15 января 2021
Носитель:
WEB
Формат:
PCM
Тип рипа:
tracks+.cue
Контейнер:
APE (*.ape)
Количество каналов:
2.0
Разрядность/ЧД:
24/44,1
Битрейт аудио:
lossless
Время звучания:
00:48:50
Наличие сканов:
web
Наличие водяных знаков:
нет
Страна-производитель диска (релиза):
Australia
Релизёр (источник):
M0p94ok

Треклист:

1. Hope 08:03
2. Many Worlds 11:02
3. Free Thing 02:31
4. Mountain Song 11:13
5. Hymn of the Turning Stone 09:26
6. Quantum Blues 06:35

Доп. инфо:

https://freestylerecords.bandcamp.com/album/many-worlds

Австралийская группа из девяти человек Spiritual Jazz Menagerie объявляет о своем долгожданном третьем альбоме «Many Worlds», который выйдет 15 января 2021 года на уважаемом британском лейбле Freestyle Records.

Menagerie - это джазовый ансамбль из Мельбурна, основанный продюсером, автором песен, гитаристом, ди-джеем и записывающим артистом Лэнсом Фергюсоном, который также является движущей силой The Bamboos, Lanu, Rare Groove Spectrum и Machines Always Win.

Записанный в студии Union Street Studio удостоенным наград инженером Джоном Кастлом, "Many Worlds" включает некоторых из лучших музыкантов Австралии, в том числе пианиста Марка Фицгиббона (постоянный исполнитель на оригинальных сессиях Dingwalls Жиля Петерсона и Патрика Форджа), барабанщика Даниэля Фарругиа и известного саксофониста Фила Ной (Бамбук).

Вдохновленный поколением пост-Колтрейна 70-х, такими лейблами, как Strata-East, Impulse! и Tribe, наряду с нынешней «Новой волной джаза», зверинец объединяется с миром Камаси Вашингтона, Шабаки Хатчингса и Нубии Гарсиа, но при этом вносит свой уникальный вклад.

Главный сингл «Free Thing» сильно перекликается с духовной стороной звучания группы. Гипнотическая устная поэма напоминает «Последние поэты», приземленную, но футуристическую медитацию на универсальную тему самой свободы, на фоне настойчивой перкуссии, контрабаса и задумчивых фортепианных голосов.

'Hope' переносит звучание духовного джаза в 21 век с его эпическими вокальными гармониями и мелодичными фанфарами, это воодушевляющий гимн этого периода глобальных потрясений и неопределенности во всем мире.

Заглавный трек "Many Worlds" является прекрасным примером того, как Menagerie объединяет их бесчисленное множество влияний, но при этом создает удивительно свежий и современный звук. Медленно горящий грув, оканчивающийся эмбиентными, неземными частями, выстраивается на протяжении 11 минут, чтобы создать выдающийся кроссовер.

Зверинец получил поддержку в эфире и на радио от Жиля Петерсона (BBC6 / Worldwide FM), Дона Леттса (BBC6), Джейми Каллума (BBC Radio 2), Саймона Харрисона, Пола Миллера и Эннио Стайлз (3RRR).

"Many Worlds" выйдет на легендарной британской Imprint Freestyle Records, где проживают современники джаза Кортни Пайн, Джессика Лорен и легенда клавишных Брайан Оугер.

Лог проверки качества
foobar2000 1.6.2 / Dynamic Range Meter 1.1.1
log date: 2021-01-21 21:57:49

--------------------------------------------------------------------------------
Analyzed: Menagerie / Many Worlds
--------------------------------------------------------------------------------

DR         Peak         RMS     Duration Track
--------------------------------------------------------------------------------
DR9       -0.50 dB   -10.47 dB      8:03 01-Hope
DR8       -0.50 dB    -9.84 dB     11:02 02-Many Worlds
DR9       -0.50 dB   -12.91 dB      2:32 03-Free Thing
DR9       -0.50 dB   -11.04 dB     11:14 04-Mountain Song
DR9       -0.50 dB   -11.85 dB      9:27 05-Hymn of the Turning Stone
DR9       -0.50 dB   -10.27 dB      6:35 06-Quantum Blues
--------------------------------------------------------------------------------

Number of tracks:  6
Official DR value: DR9

Samplerate:        44100 Hz
Channels:          2
Bits per sample:   24
Bitrate:           1543 kbps
Codec:             FLAC
================================================================================
Приватный:
Нет (DHT включён)
Размер:
550.64 Мб (577,387,090 байт) » файлов: 8
Участники:
71 раздают, 1 качают (72 участников всего)
Внешние участники:
--- [ Обновить ]
No seeders - write personal message to M0p94ok. Any questions - support@pro-jazz.com.
Нет сидеров - пишите в личку M0p94ok. Есть вопросы - support@pro-jazz.com
23:26
134
Нет комментариев. Ваш будет первым!