Поиск

2021 Nicki & Patrick Adams - Lynx {Sunnyside} [24-96]

2021 Nicki & Patrick Adams - Lynx {Sunnyside} [24-96]
Стили:
Дата издания диска:
15 января 2021
Издатель (лейбл):
Носитель:
WEB
Формат:
PCM
Тип рипа:
tracks+.cue
Контейнер:
APE (*.ape)
Количество каналов:
2.0
Разрядность/ЧД:
24/96
Битрейт аудио:
lossless
Время звучания:
00:41:27
Наличие сканов:
web
Наличие водяных знаков:
нет
Релизёр (источник):
M0p94ok

Треклист:

1. Shade of Jade (5:25)
2. Pannonica (6:22)
3. 26-2 (5:25)
4. Things Behind the Sun (3:29)
5. E.S.P. (5:08)
6. Cool Blues (4:39)
7. Actual Proof (5:44)
8. I Wish I Knew (6:31)

Лог проверки качества
foobar2000 1.6.2 / Dynamic Range Meter 1.1.1
log date: 2021-01-21 19:03:51

--------------------------------------------------------------------------------
Analyzed: Nicki & Patrick Adams / Lynx
--------------------------------------------------------------------------------

DR         Peak         RMS     Duration Track
--------------------------------------------------------------------------------
DR10      -0.91 dB   -13.46 dB      5:25 01-Shade of Jade
DR11      -0.91 dB   -13.94 dB      6:22 02-Pannonica
DR10      -0.84 dB   -12.99 dB      5:25 03-26-2
DR9       -0.93 dB   -13.07 dB      3:29 04-Things Behind the Sun
DR10      -0.62 dB   -12.33 dB      5:08 05-E.S.P.
DR11      -0.60 dB   -13.93 dB      4:39 06-Cool Blues
DR11      -0.91 dB   -15.05 dB      5:44 07-Actual Proof
DR12      -0.61 dB   -15.93 dB      6:31 08-I Wish I Knew
--------------------------------------------------------------------------------

Number of tracks:  8
Official DR value: DR11

Samplerate:        96000 Hz
Channels:          2
Bits per sample:   24
Bitrate:           2396 kbps
Codec:             FLAC
================================================================================
Приватный:
Нет (DHT включён)
Размер:
761.08 Мб (798,054,443 байт) » файлов: 10
Участники:
1 раздают, 1 качают (2 участников всего)
Внешние участники:
--- [ Обновить ]
No seeders - write personal message to M0p94ok. Any questions - support@pro-jazz.com.
Нет сидеров - пишите в личку M0p94ok. Есть вопросы - support@pro-jazz.com
20:12
141
Нет комментариев. Ваш будет первым!