Поиск

2020 Jazz In Pink - Joy! {Shanachie Entertainment} [24-44,1]

2020 Jazz In Pink - Joy! {Shanachie Entertainment} [24-44,1]
Стили:
Дата издания диска:
30 октября 2020
Издатель (лейбл):
Битрейт аудио:
lossless

Треклист:

01 - Joy Joy! Featuring Kim Waters 04:21
02 - Keystroke 04:06
03 - All That Jazz Featuring Marion Meadows 04:28
04 - Positivity Featuring Kim Scott 04:22
05 - Come For Me 04:37
06 - Steppin' To The Keys 04:22
07 - Into The Nite 04:01
08 - Roll Out 04:29
09 - The Ride 04:08
10 - Smoother 04:06

Доп. инфо:

Формат записи/Источник записи: [TR24][OF]
Год издания/переиздания диска: 2020
Продолжительность: 00:43:00
Наличие сканов в содержимом раздачи: Нет
Контейнер: FLAC (*.flac)
Тип рипа: tracks
Разрядность: 24/44,1
Количество каналов: 2.0

Источник (релизер): HIGHRESAUDIO

Лог проверки качества
foobar2000 1.4.6 / Dynamic Range Meter 1.1.1
log date: 2020-11-03 04:28:53

--------------------------------------------------------------------------------
Analyzed: Jazz In Pink / Joy!
--------------------------------------------------------------------------------

DR         Peak         RMS     Duration Track
--------------------------------------------------------------------------------
DR7        0.00 dB    -9.12 dB      4:22 01-Joy Joy! Featuring Kim Waters
DR7       -0.88 dB    -9.20 dB      4:07 02-Keystroke
DR7       -0.78 dB   -10.00 dB      4:29 03-All That Jazz Featuring Marion Meadows
DR5       -0.89 dB    -7.46 dB      4:23 04-Positivity Featuring Kim Scott
DR7       -0.80 dB    -9.17 dB      4:37 05-Come For Me
DR8       -0.79 dB    -9.68 dB      4:22 06-Steppin' To The Keys
DR6       -0.70 dB    -7.89 dB      4:01 07-Into The Nite
DR6       -0.75 dB    -8.11 dB      4:30 08-Roll Out
DR8       -0.88 dB    -9.56 dB      4:09 09-The Ride
DR8       -0.70 dB    -9.86 dB      4:06 10-Smoother
--------------------------------------------------------------------------------

Number of tracks:  10
Official DR value: DR7

Samplerate:        44100 Hz
Channels:          2
Bits per sample:   24
Bitrate:           1657 kbps
Codec:             FLAC
================================================================================
Приватный:
Нет (DHT включён)
Размер:
488.50 Мб (512,224,238 байт) » файлов: 15
Участники:
0 раздают, 0 качают (0 участников всего)
Внешние участники:
16 раздают, 5 качают (21 участников всего) [ Обновить ]
For power users only: no seeders - write to support@pro-jazz.com. Для power user: нет сидеров - пишите на support@pro-jazz.com.
19:37
37
Нет комментариев. Ваш будет первым!