Поиск

2014 Hands On Strings - Prometheus {Doctor Heart Music HD} [24-44,1]

2014 Hands On Strings - Prometheus {Doctor Heart Music HD} [24-44,1]
Место записи:
Waldhausstudio, Birkholz, Germany
Дата издания диска:
30 мая 2014
Номер по каталогу:
HEART 1001
Носитель:
WEB
Формат:
PCM
Тип рипа:
tracks+.cue
Контейнер:
APE (*.ape)
Количество каналов:
2.0
Разрядность/ЧД:
24/44,1
Битрейт аудио:
lossless
Время звучания:
00:48:45
Наличие сканов:
web
Наличие водяных знаков:
нет
Страна-производитель диска (релиза):
Germany
Релизёр (источник):
M0p94ok

Треклист:

01. Prometheus (4:25)
02. Summer Quest (4:54)
03. It Rains in 7/4 (5:46)
04. Joshua (6:14)
05. Conga (2:45)
06. Serenata (6:36)
07. Patmania (5:12)
08. Helene (2:13)
09. Schindlers List (4:13)
10. Koh-I-Noor (6:23)

Доп. инфо:

Их новый альбом вводит в загадку звука, отмеченную арабскими и южно-американскими элементами, а также концертной музыкой и джазом. В то же время это создает характерный, увлекательный подход: можно сказать, своего рода GUITARRA NUEVA.

Томас Феллоу и Стефан Борман считаются двумя из самых влиятельных героев современной гитарной сцены. Стефан не в последнюю очередь из-за его публикаций и успешных музыкальных проектов и встреч (Кристин Клаас, Нильс Ландгрен), а также Томаса в качестве перкуссивного сольного оркестра Friend’n Fellow и вдохновителя Европейского гитарного квартета.

Вместе, как РУКИ НА СТРУНАХ, они предлагают захватывающую смесь концертной музыки, мировой музыки и джаза - часто потрясающе блестящую, всегда свежую и независимую.

Кроме того, оба музыканта наполняют свои произведения радостью от игры, которая немедленно уносит публику.

Лог проверки качества
foobar2000 1.3.16 / Dynamic Range Meter 1.1.1
log date: 2019-04-17 19:58:25

--------------------------------------------------------------------------------
Analyzed: Hands On Strings / Prometheus
--------------------------------------------------------------------------------

DR         Peak         RMS     Duration Track
--------------------------------------------------------------------------------
DR8       -0.40 dB   -10.35 dB      4:24 01-Prometheus
DR7       -0.30 dB   -11.02 dB      4:51 02-Summer Quest
DR8       -0.50 dB   -11.65 dB      5:46 03-It Rains in 7/4
DR14      -0.40 dB   -17.90 dB      6:12 04-Joshua
DR10      -0.50 dB   -12.05 dB      2:45 05-Conga
DR9       -0.40 dB   -12.95 dB      6:34 06-Serenata
DR9       -0.20 dB   -12.51 dB      5:11 07-Patmania
DR10      -0.40 dB   -13.70 dB      2:00 08-Helene
DR8       -0.40 dB   -12.32 dB      4:16 09-Schindlers List
DR8       -0.20 dB   -11.41 dB      6:23 10-Koh-I-Noor
--------------------------------------------------------------------------------

Number of tracks:  10
Official DR value: DR9

Samplerate:        44100 Hz
Channels:          2
Bits per sample:   24
Bitrate:           1381 kbps
Codec:             FLAC
================================================================================
Приватный:
Нет (DHT включён)
Размер:
476.48 Мб (499,627,412 байт) » файлов: 12
Участники:
0 раздают, 0 качают (0 участников всего)
Внешние участники:
--- [ Обновить ]
For power users only: no seeders - write to support@pro-jazz.com. Для power user: нет сидеров - пишите на support@pro-jazz.com.
15:32
48
Нет комментариев. Ваш будет первым!