Поиск

2020 Girls in Airports – Dive {Mawi Music} [24-44,1]

2020 Girls in Airports – Dive {Mawi Music} [24-44,1]
Стили:
Дата издания диска:
27 ноября 2020
Битрейт аудио:
lossless

Треклист:

01. Suncry  03:24
02. Collision  04:56
03. Weaver  04:31
04. Outside Looking In  04:15
05. Waving Leaves  03:39
06. Stonehouse  03:54
07. Icicle  02:10
08. Lin  06:13
09. Broke  03:35
10. Rold Skov  07:24
11. Anima  06:04

Лог проверки качества
foobar2000 1.6.2 / Dynamic Range Meter 1.1.1
log date: 2020-11-29 21:20:13

––––––––––––––––––––––––––––––––––––––––
Analyzed: Girls In Airports / Dive
––––––––––––––––––––––––––––––––––––––––

DR Peak RMS Duration Track
––––––––––––––––––––––––––––––––––––––––
DR9 -0.13 dB -11.66 dB 3:24 01-Suncry
DR7 -0.15 dB -10.89 dB 4:57 02-Collision
DR10 -0.14 dB -12.27 dB 4:31 03-Weaver
DR9 -0.13 dB -12.70 dB 4:16 04-Outside Looking In
DR9 -0.25 dB -14.42 dB 3:40 05-Waving Leaves
DR8 -0.20 dB -10.74 dB 3:55 06-Stonehouse
DR11 -3.28 dB -20.71 dB 2:11 07-Icicle
DR8 -0.14 dB -11.95 dB 6:14 08-Lin
DR10 -0.37 dB -12.27 dB 3:36 09-Broke
DR9 -0.14 dB -12.44 dB 7:24 10-Rold Skov
DR8 -0.14 dB -11.22 dB 6:04 11-Anima
––––––––––––––––––––––––––––––––––––––––

Number of tracks: 11
Official DR value: DR9

Samplerate: 44100 Hz
Channels: 2
Bits per sample: 24
Bitrate: 1498 kbps
Codec: FLAC
================================================================================
Приватный:
Да (DHT отключён)
Размер:
535.00 Мб (560,991,389 байт) » файлов: 12
Участники:
1 раздают, 1 качают (2 участников всего)
Внешние участники:
9 раздают, 3 качают (12 участников всего) [ Обновить ]
For power users only: no seeders - write to support@pro-jazz.com. Для power user: нет сидеров - пишите на support@pro-jazz.com.
14:40
42
Нет комментариев. Ваш будет первым!