Поиск

1971 Willie Bobo And The Bo-Gents - Do What You Want to Do... {Sussex} [24-96]

1971 Willie Bobo And The Bo-Gents - Do What You Want to Do... {Sussex} [24-96]
Стили:
Дата издания диска:
17 апреля 1971
Битрейт аудио:
lossless

Треклист:

01 - Do What You Want to Do 03:20
02 - Shut up and Pay Attention 03:29
03 - Dindi 06:01
04 - Come Together 05:19
05 - Soul Foo Yong 04:45
06 - Broasted or Fried 04:56
07 - The Thrill is Gone 05:50
08 - How Can I Say Goodbye? 03:11
09 - Never You Mind 06:00

Доп. инфо:

Формат записи/Источник записи: [TR24][OF]
Издание: Remastered
Год издания/переиздания диска: 1971
Издатель (лейбл): Sussex Records
Продолжительность: 00:42:51
Наличие сканов в содержимом раздачи: Нет

Контейнер: FLAC (*.flac)
Тип рипа: tracks
Разрядность: 24/96
Количество каналов: 2.0

Источник (релизер): PROSTUDIOMASTERS

Лог проверки качества
foobar2000 1.4.3 / Dynamic Range Meter 1.1.1
log date: 2020-11-24 18:36:38

--------------------------------------------------------------------------------
Analyzed: Willie Bobo And The Bo-Gents / Do What You Want to Do...
--------------------------------------------------------------------------------

DR         Peak         RMS     Duration Track
--------------------------------------------------------------------------------
DR9       -1.25 dB   -11.31 dB      3:21 01-Do What You Want to Do
DR9       -1.25 dB   -11.88 dB      3:30 02-Shut up and Pay Attention
DR11      -1.25 dB   -15.09 dB      6:02 03-Dindi
DR9       -1.25 dB   -12.25 dB      5:20 04-Come Together
DR10      -1.25 dB   -12.35 dB      4:46 05-Soul Foo Yong
DR9       -1.25 dB   -12.04 dB      4:57 06-Broasted or Fried
DR9       -1.25 dB   -13.89 dB      5:50 07-The Thrill is Gone
DR9       -1.25 dB   -12.60 dB      3:11 08-How Can I Say Goodbye?
DR10      -1.25 dB   -12.58 dB      6:01 09-Never You Mind
--------------------------------------------------------------------------------

Number of tracks:  9
Official DR value: DR10

Samplerate:        96000 Hz
Channels:          2
Bits per sample:   24
Bitrate:           2667 kbps
Codec:             FLAC
================================================================================
Приватный:
Нет (DHT включён)
Размер:
827.69 Мб (867,900,174 байт) » файлов: 14
Участники:
0 раздают, 0 качают (0 участников всего)
Внешние участники:
5 раздают, 1 качают (6 участников всего) [ Обновить ]
No seeders - write personal message to M0p94ok. Нет сидеров - пишите в личку M0p94ok.
01:05
144
Нет комментариев. Ваш будет первым!