Поиск

2019 Francesco Digilio - Springtime Jazz (Instrumental Love Songs) {Digilio Publishing} [24-44,1]

2019 Francesco Digilio - Springtime Jazz (Instrumental Love Songs) {Digilio Publishing} [24-44,1]
Стили:
Дата издания диска:
10 апреля 2019
Носитель:
WEB
Формат:
PCM
Тип рипа:
tracks+.cue
Контейнер:
APE (*.ape)
Количество каналов:
2.0
Битрейт аудио:
lossless
Время звучания:
00:48:35
Наличие сканов:
web
Релизёр (источник):
M0p94ok
Лог проверки качества
foobar2000 1.6.2 / Dynamic Range Meter 1.1.1
log date: 2021-01-20 23:39:47

--------------------------------------------------------------------------------
Analyzed: Francesco Digilio / Springtime Jazz (Instrumental Love Songs)
--------------------------------------------------------------------------------

DR         Peak         RMS     Duration Track
--------------------------------------------------------------------------------
DR13      -0.30 dB   -15.88 dB      4:57 01-The Nearness of You
DR12      -0.30 dB   -14.12 dB      3:35 02-Who Can I Turn To?
DR13      -0.30 dB   -16.38 dB      3:28 03-It Could Happen to You
DR12      -0.30 dB   -14.67 dB      6:41 04-Darn That Dream
DR12      -0.30 dB   -14.11 dB      6:43 05-Polkadots & Moonbeams
DR11      -0.30 dB   -13.67 dB      5:39 06-That's All
DR12      -0.30 dB   -14.45 dB      4:30 07-You Don't Know What Love Is
DR12      -0.30 dB   -13.56 dB      3:26 08-Mean to Me
DR12      -0.30 dB   -14.22 dB      5:04 09-Mood Indigo
DR12      -0.30 dB   -14.12 dB      4:37 10-Alone Togheter
--------------------------------------------------------------------------------

Number of tracks:  10
Official DR value: DR12

Samplerate:        44100 Hz
Channels:          2
Bits per sample:   24
Bitrate:           561 kbps
Codec:             FLAC
================================================================================
No seeders - write personal message to M0p94ok. Any questions - support@pro-jazz.com.
Нет сидеров - пишите в личку M0p94ok. Есть вопросы - support@pro-jazz.com
00:51
174
Нет комментариев. Ваш будет первым!