Поиск

2021 Chema Peñalver - Big Band "Mode On" {Chema Peñalver} [24-44.1]

2021 Chema Peñalver - Big Band "Mode On" {Chema Peñalver} [24-44.1]
Дата издания диска:
21 мая 2021
Битрейт аудио:
lossless
Лог проверки качества
foobar2000 1.4.2 / Dynamic Range Meter 1.1.1
log date: 2021-05-22 23:08:13

--------------------------------------------------------------------------------
Analyzed: Chema PeГ±alver / Big Band "Mode On"
--------------------------------------------------------------------------------

DR         Peak         RMS     Duration Track
--------------------------------------------------------------------------------
DR11      -1.00 dB   -14.64 dB      3:55 01-Mode On
DR11      -1.00 dB   -14.36 dB      3:58 02-First Lady
DR11      -1.00 dB   -14.77 dB      5:12 03-Slave
DR11      -1.00 dB   -13.96 dB      5:42 04-Casco Antiguo
DR12      -1.00 dB   -14.59 dB      7:24 05-CafГ© Swing
DR12      -1.00 dB   -14.85 dB      5:24 06-Agridulce
DR12      -1.00 dB   -14.47 dB      6:17 07-Carga y Descarga
DR10      -1.00 dB   -13.34 dB      5:57 08-Clarinet Г  la cool
DR11      -1.00 dB   -13.74 dB      6:48 09-Moolongoo
--------------------------------------------------------------------------------

Number of tracks:  9
Official DR value: DR11

Samplerate:        44100 Hz
Channels:          2
Bits per sample:   24
Bitrate:           1569 kbps
Codec:             FLAC
================================================================================
No seeders - write personal message to M0p94ok. Any questions - support@pro-jazz.com.
Нет сидеров - пишите в личку M0p94ok. Есть вопросы - support@pro-jazz.com
12:14
58
Нет комментариев. Ваш будет первым!