Поиск

2021 Florian Weiss' Woodoism - Alternate Reality {NWOG} [24-88.2]

2021 Florian Weiss' Woodoism - Alternate Reality {NWOG} [24-88.2]
Дата записи диска:
3 ноября - 5 ноября 2020
Место записи:
4tune Studio, Vienna, Austria
Дата издания диска:
21 мая 2021
Носитель:
WEB
Формат:
PCM
Тип рипа:
tracks
Контейнер:
FLAC (*.flac)
Количество каналов:
2.0
Разрядность/ЧД:
24/88,2
Битрейт аудио:
lossless
Время звучания:
00:55:59
Наличие сканов:
только обложка

Треклист:

◈ 01 - Inhale, Exhale (00:05:34)
◈ 02 - Shivering Timbers (00:03:46)
◈ 03 - Valse des papillons de nuit (00:08:07)
◈ 04 - Wabi-Sabi (00:05:35)
◈ 05 - The Woods Are Lovely, Dark and Deep (00:07:03)
◈ 06 - Feuer im Termitenhugel (00:05:44)
◈ 07 - Fuge fur A. (00:07:35)
◈ 08 - Alternate Reality (Visiting Oz) (00:06:17)
◈ 09 - Alternate Reality II (Delirium) (00:02:06)
◈ 10 - Alternate Reality III (Awakening) (00:04:06)

Состав:
  • Linus Amstad — altosax/flute
  • Florian Weiss — trombone
  • Valentin v. Fischer — doublebass
  • Philipp Leibundgut — drums/glockenspiel
  • All compositions by Florian Weiss
  • Recorded by Werner Angerer
  • Mixed by Werner Angerer
  • Mastered André Pousaz
  • Produced by Woodoism
Лог проверки качества
foobar2000 1.4.2 / Dynamic Range Meter 1.1.1
log date: 2021-05-22 23:13:05

--------------------------------------------------------------------------------
Analyzed: Florian Weiss' Woodoism / Alternate Reality
--------------------------------------------------------------------------------

DR         Peak         RMS     Duration Track
--------------------------------------------------------------------------------
DR11      -0.50 dB   -15.17 dB      5:35 01-Inhale, Exhale
DR10      -0.50 dB   -13.04 dB      3:47 02-Shivering Timbers
DR11      -0.50 dB   -16.18 dB      8:07 03-Valse des papillons de nuit
DR9       -0.50 dB   -12.96 dB      5:36 04-Wabi-Sabi
DR12      -0.50 dB   -16.40 dB      7:04 05-The Woods Are Lovely, Dark and Deep
DR10      -0.50 dB   -12.62 dB      5:45 06-Feuer im TermitenhГјgel
DR9       -0.50 dB   -14.14 dB      7:36 07-Fuge fГјr A.
DR12      -0.50 dB   -16.63 dB      6:18 08-Alternate Reality (Visiting Oz)
DR14      -1.45 dB   -21.68 dB      2:06 09-Alternate Reality II (Delirium)
DR8       -0.50 dB   -13.00 dB      4:06 10-Alternate Reality III (Awakening)
--------------------------------------------------------------------------------

Number of tracks:  10
Official DR value: DR11

Samplerate:        88200 Hz
Channels:          2
Bits per sample:   24
Bitrate:           2630 kbps
Codec:             FLAC
================================================================================
По всем вопросам пишите личное сообщение пользователю M0p94ok.
11:33
314
Нет комментариев. Ваш будет первым!