Поиск

2021 James Francies - Purest Form {Blue Note} [24-96]

2021 James Francies - Purest Form {Blue Note} [24-96]
Дата издания диска:
21 мая 2021
Издатель (лейбл):
Носитель:
WEB
Формат:
PCM
Тип рипа:
tracks
Контейнер:
FLAC (*.flac)
Количество каналов:
2.0
Разрядность/ЧД:
24/96
Битрейт аудио:
lossless
Время звучания:
00:55:50
Наличие сканов:
только обложка
Страна-производитель диска (релиза):
USA
Релизёр (источник):
ЯOR

Треклист:

◈ 01 - Adoration (00:01:57)
◈ 02 - Levitate (00:05:07)
◈ 03 - Transfiguration (00:04:00)
◈ 04 - Blown Away (00:02:45)
◈ 05 - Rose Water (00:03:23)
◈ 06 - My Favorite Things (00:07:32)
◈ 07 - Stratus (00:00:45)
◈ 08 - 713 (00:05:21)
◈ 09 - Melting (00:04:14)
◈ 10 - Where We Stand (00:05:11)
◈ 11 - Freedmen's Town (00:05:31)
◈ 12 - Eyes Wide Shut (00:04:34)
◈ 13 - Still Here (00:01:29)
◈ 14 - Oasis (00:03:53)

Состав:
  • Tia Allen    Viola
  • Marta Bagratuni    Cello
  • Bilal    Vocals
  • Zach Brown    Recording
  • Francesca Dardani    Violin
  • DJ Dahi    Drum Programming, Producer
  • Jeremy Dutton    Drums
  • Brenda Francies    Narrator
  • James Francies    Arranger, Composer, Keyboards, Piano, Producer, Spoken Word, Vocals
  • Shawana Francies    Spoken Word
  • Sulamit Gorski    Violin
  • Josh Guinta    Recording
  • Mike Moreno    Guitar
  • Peyton    Vocals
  • Joel Ross    Vibraphone
  • Jason Rostkowski    Mixing Engineer, Recording
  • Ian Sefchick    Mastering Engineer
  • Elliott Skinner    Composer, Vocals
  • Burniss Travis    Bass
  • Immanuel Wilkins    Saxophone
Лог проверки качества
foobar2000 1.4.2 / Dynamic Range Meter 1.1.1
log date: 2021-05-22 23:15:59

--------------------------------------------------------------------------------
Analyzed: James Francies / Purest Form
--------------------------------------------------------------------------------

DR         Peak         RMS     Duration Track
--------------------------------------------------------------------------------
DR7       -0.20 dB    -9.84 dB      1:57 01-Adoration
DR7       -0.20 dB    -8.31 dB      5:07 02-Levitate
DR7       -0.20 dB    -8.95 dB      4:01 03-Transfiguration
DR9       -0.20 dB   -11.65 dB      2:46 04-Blown Away
DR6       -0.20 dB    -8.41 dB      3:24 05-Rose Water
DR6       -0.20 dB    -7.99 dB      7:33 06-My Favorite Things
DR9       -0.20 dB   -12.00 dB      0:45 07-Stratus
DR8       -0.20 dB    -9.65 dB      5:22 08-713
DR7       -0.20 dB    -8.75 dB      4:15 09-Melting
DR4       -0.20 dB    -5.50 dB      5:12 10-Where We Stand
DR10      -0.20 dB   -13.55 dB      5:31 11-Freedmen's Town
DR5       -0.20 dB    -6.43 dB      4:35 12-Eyes Wide Shut
DR11      -1.39 dB   -17.02 dB      1:29 13-Still Here
DR6       -0.20 dB   -10.03 dB      3:53 14-Oasis
--------------------------------------------------------------------------------

Number of tracks:  14
Official DR value: DR7

Samplerate:        96000 Hz
Channels:          2
Bits per sample:   24
Bitrate:           2934 kbps
Codec:             FLAC
================================================================================
По всем вопросам пишите личное сообщение пользователю M0p94ok.
12:43
300
Нет комментариев. Ваш будет первым!