Поиск

1962 Sarah Vaughan with Quincy Jones - You're Mine You (2020) {RevOla} [24-44.1]

1962 Sarah Vaughan with Quincy Jones - You're Mine You (2020) {RevOla} [24-44.1]
Издатель (лейбл):
Номер по каталогу:
R 52082
Носитель:
WEB
Формат:
PCM
Тип рипа:
tracks
Контейнер:
FLAC (*.flac)
Количество каналов:
2.0
Разрядность/ЧД:
24/44,1
Битрейт аудио:
lossless
Время звучания:
00:31:59
Наличие сканов:
только обложка
Страна-производитель диска (релиза):
USA
Релизёр (источник):
latimer
Доп. инфо:

Источник: Qobuz

Лог проверки качества
foobar2000 1.4.6 / Dynamic Range Meter 1.1.1
log date: 2021-05-18 07:40:34

--------------------------------------------------------------------------------
Analyzed: Sarah Vaughan / You're Mine You
--------------------------------------------------------------------------------

DR         Peak         RMS     Duration Track
--------------------------------------------------------------------------------
DR9       -1.81 dB   -14.00 dB      4:03 01-You're Mine You (Remastered)
DR12      -0.08 dB   -17.48 dB      3:03 02-The Best Is Yet To Come (Remastered)
DR10      -1.00 dB   -14.19 dB      2:58 03-Witchcraft (Remastered)
DR10      -1.00 dB   -14.03 dB      3:43 04-The Second Time Around (Remastered)
DR12      -0.52 dB   -16.59 dB      2:24 05-I Could Write a Book (Remastered)
DR8       -0.95 dB   -13.03 dB      3:14 06-Maria (Remastered)
DR11      -1.11 dB   -15.87 dB      3:42 07-Baubles, Bangles and Beads (Remastered)
DR9       -1.67 dB   -14.40 dB      2:56 08-Fly Me to the Moon (Remastered)
DR10      -0.96 dB   -15.17 dB      2:55 09-So Long (Remastered)
DR9       -0.37 dB   -13.88 dB      3:06 10-On Green Dolphin Street (Remastered)
--------------------------------------------------------------------------------

Number of tracks:  10
Official DR value: DR10

Samplerate:        44100 Hz
Channels:          2
Bits per sample:   24
Bitrate:           1394 kbps
Codec:             FLAC
================================================================================
No seeders - write personal message to M0p94ok. Any questions - support@pro-jazz.com.
Нет сидеров - пишите в личку M0p94ok. Есть вопросы - support@pro-jazz.com
10:21
30
Нет комментариев. Ваш будет первым!