Поиск

2021 Carlos Vega - Art of the Messenger {Origin} [24-96]

2021 Carlos Vega - Art of the Messenger {Origin} [24-96]
Стили:
Дата записи диска:
18 декабря & 19 декабря 2017
Место записи:
Transient Sound, Chicago, Illinois, USA
Дата издания диска:
21 мая 2021
Носитель:
WEB
Формат:
PCM
Тип рипа:
tracks
Контейнер:
FLAC (*.flac)
Количество каналов:
2.0
Разрядность/ЧД:
24/96
Битрейт аудио:
lossless
Время звучания:
01:15:06
Наличие сканов:
только обложка
Страна-производитель диска (релиза):
USA
Релизёр (источник):
ЯOR
Лог проверки качества
foobar2000 1.4.2 / Dynamic Range Meter 1.1.1
log date: 2021-05-22 16:02:17

--------------------------------------------------------------------------------
Analyzed: Carlos Vega / Art of the Messenger
--------------------------------------------------------------------------------

DR         Peak         RMS     Duration Track
--------------------------------------------------------------------------------
DR10      -0.25 dB   -12.30 dB      7:44 01-Art of the Messenger
DR10      -0.25 dB   -11.62 dB      7:22 02-Bird's Word
DR11      -0.26 dB   -13.97 dB      5:13 03-Ode to the Patient Observer
DR10      -0.25 dB   -11.91 dB      6:56 04-Across the Ocean
DR10      -0.25 dB   -11.08 dB      5:55 05-Don't Forget to Ask
DR9       -0.25 dB   -11.31 dB      5:59 06-Something to Say
DR11      -0.25 dB   -12.17 dB      5:24 07-Oh
DR9       -0.25 dB   -11.40 dB      5:50 08-The Owl
DR10      -0.25 dB   -12.08 dB      8:19 09-Who Cooks for You
DR10      -0.26 dB   -12.79 dB      9:41 10-Heed the Call
DR13      -0.26 dB   -16.29 dB      6:42 11-Serenata for Bela
--------------------------------------------------------------------------------

Number of tracks:  11
Official DR value: DR10

Samplerate:        96000 Hz
Channels:          2
Bits per sample:   24
Bitrate:           2411 kbps
Codec:             FLAC
================================================================================
No seeders - write personal message to M0p94ok. Any questions - support@pro-jazz.com.
Нет сидеров - пишите в личку M0p94ok. Есть вопросы - support@pro-jazz.com
09:54
30
Нет комментариев. Ваш будет первым!