Поиск

2021 Bob James Trio - Feel Like Making LIVE! {evosound} [DSD64]

2021 Bob James Trio - Feel Like Making LIVE! {evosound} [DSD64]
Стили:
Дата издания диска:
28 января 2022
Издатель (лейбл):
Носитель:
WEB
Формат:
DSD
Тип рипа:
tracks
Контейнер:
DFF (*.dff)
Количество каналов:
2.0
Разрядность/ЧД:
64 (2,8 MHz/1 Bit)
Битрейт аудио:
lossless
Время звучания:
01:22:59
Наличие сканов:
только обложка

01 - Angela (6:58)
02 - Rocket Man (4:51)
03 - Maputo (4:42)
04 - Topside (5:48)
05 - Misty (4:52)
06 - Avalabop (6:03)
07 - Nautilus (2:48)
08 - Downtown (6:28)
09 - Niles A Head (4:48)
10 - Feel Like Making Love / Night Crawler (9:16)
11 - Submarine (5:41)
12 - Mister Magic (8:31)
13 - Nardis (6:26)
14 - Westchester Lady (5:48)

Состав:
  • Bob James, keyboards
  • Billy Kilson, drums
  • Michael Palazzolo, bass
Лог проверки качества
foobar2000 1.6.9 / Dynamic Range Meter 1.1.1
log date: 2022-01-28 11:43:15
--------------------------------------------------------------------------------
Analyzed: Bob James / Feel Like Making LIVE!
--------------------------------------------------------------------------------
DR         Peak         RMS     Duration Track
--------------------------------------------------------------------------------
DR10      -6.66 dB   -19.59 dB      6:58 01-Angela
DR11      -6.70 dB   -19.29 dB      4:51 02-Rocket Man
DR9       -6.32 dB   -18.01 dB      4:42 03-Maputo
DR10      -6.18 dB   -18.34 dB      5:48 04-Topside
DR11      -6.72 dB   -20.32 dB      4:52 05-Misty
DR12      -6.63 dB   -21.47 dB      6:03 06-Avalabop
DR13      -6.41 dB   -22.16 dB      2:48 07-Nautilus
DR10      -6.23 dB   -19.85 dB      6:28 08-Downtown
DR9       -6.68 dB   -18.17 dB      4:48 09-Niles A Head
DR10      -6.57 dB   -18.56 dB      9:16 10-Feel Like Making Love / Night Crawler
DR9       -6.56 dB   -17.23 dB      5:41 11-Submarine
DR12      -6.59 dB   -22.11 dB      8:31 12-Mister Magic
DR12      -6.43 dB   -21.44 dB      6:26 13-Nardis
DR10      -6.49 dB   -20.07 dB      5:48 14-Westchester Lady
--------------------------------------------------------------------------------
Number of tracks:  14
Official DR value: DR11
Samplerate:        2822400 Hz / PCM Samplerate: 176400 Hz
Channels:          2
Bits per sample:   1
Bitrate:           5645 kbps
Codec:             DSD64
================================================================================
Приватный:
Нет (DHT включён)
Размер:
3.27 Гб (3,515,185,074 байт) » файлов: 15
Участники:
0 раздают, 0 качают (0 участников всего)
Внешние участники:
19 раздают, 6 качают (25 участников всего) [ Обновить ]
22:27
551
Нет комментариев. Ваш будет первым!