Поиск

2022 Shirley Smart & Robert Mitchell - Zeitgeist² {Discus Music} [24-48]

2022 Shirley Smart & Robert Mitchell - Zeitgeist² {Discus Music} [24-48]
Дата издания диска:
20 января 2022
Носитель:
WEB
Формат:
PCM
Тип рипа:
tracks
Контейнер:
FLAC (*.flac)
Количество каналов:
2.0
Разрядность/ЧД:
24/48
Битрейт аудио:
lossless
Время звучания:
00:40:08
Наличие сканов:
только обложка

01 - Opals (06:01)
02 - The First Note (02:06)
03 - Anxieties (04:38)
04 - Zeitgeist (05:36)
05 - Klavierstuck in A (03:21)
06 - For Catherine (04:54)
07 - Inner Sanctum (02:33)
08 - A Son of Windrush Reflects (05:34)
09 - Mind's Eye (05:22)

Состав:
  • Shirley Smart — cello.
  • Robert Mitchell — piano, voice.
Лог проверки качества
foobar2000 1.4.2 / Dynamic Range Meter 1.1.1
log date: 2022-01-28 08:55:43
--------------------------------------------------------------------------------
Analyzed: Shirley Smart, Robert Mitchell / Zeitgeist
--------------------------------------------------------------------------------
DR         Peak         RMS     Duration Track
--------------------------------------------------------------------------------
DR8       -0.93 dB   -11.07 dB      6:01 01-Opals
DR7       -0.77 dB   -11.88 dB      2:07 02-The First Note
DR7       -0.87 dB   -10.36 dB      4:38 03-Anxieties
DR9       -0.90 dB   -14.04 dB      5:37 04-Zeitgeist
DR7       -0.86 dB    -9.63 dB      3:21 05-Klavierstuck in A
DR9       -0.92 dB   -13.56 dB      4:55 06-For Catherine
DR10      -1.00 dB   -14.69 dB      2:33 07-Inner Sanctum
DR9       -0.65 dB   -11.84 dB      5:34 08-A Son of Windrush Reflects
DR8       -0.90 dB   -11.90 dB      5:22 09-Mind's Eye
--------------------------------------------------------------------------------
Number of tracks:  9
Official DR value: DR8
Samplerate:        48000 Hz
Channels:          2
Bits per sample:   24
Bitrate:           1472 kbps
Codec:             FLAC
================================================================================
16:16
376
Нет комментариев. Ваш будет первым!