Поиск

1958 Art Blakey - Art Blakey's Jazz Messengers With Thelonious Monk (2022) {Rhino Atlantic} [24-96]

1958 Art Blakey - Art Blakey's Jazz Messengers With Thelonious Monk (2022) {Rhino Atlantic} [24-96]
Стили:
Дата записи диска:
14 мая - 15 мая 1957
Место записи:
Capitol Studios, New York City, NY
Дата переиздания диска:
20 мая 2022
Издатель (лейбл):
Носитель:
WEB
Формат:
PCM
Тип рипа:
tracks
Контейнер:
FLAC (*.flac)
Количество каналов:
mono
Разрядность/ЧД:
24/96
Битрейт аудио:
lossless
Наличие сканов:
только обложка

01. Evidence (with Thelonious Monk) (2022 Remaster)  06:44
02. In Walked Bud (with Thelonious Monk) (2022 Remaster)  06:37
03. Blue Monk (with Thelonious Monk) (2022 Remaster)  07:48
04. I Mean You (with Thelonious Monk) (2022 Remaster)  08:00
05. Rhythm-A-Ning (with Thelonious Monk) (2022 Remaster)  07:19
06. Purple Shades (with Thelonious Monk) (2022 Remaster)  07:38
07. Evidence (Take 2) [with Thelonious Monk] (2022 Remaster)  06:20
08. In Walked Bud (Take 2) [with Thelonious Monk] (2022 Remaster)  06:20
09. Blue Monk (Take 9) [with Thelonious Monk] (2022 Remaster)  07:02
10. I Mean You (Take 3) [with Thelonious Monk] (2022 Remaster)  07:35
11. Rhythm-A-Ning (Take 2) [with Thelonious Monk] (2022 Remaster)  07:12
12. Purple Shades (Take 4) [with Thelonious Monk] (2022 Remaster)  07:12

 

Состав:
Лог проверки качества
foobar2000 1.6.10 / Dynamic Range Meter 1.1.1
log date: 2022-11-08 00:20:28

--------------------------------------------------------------------------------
Analyzed: Art Blakey & The Jazz Messengers / Art Blakey's Jazz Messengers (with Thelonious Monk)
--------------------------------------------------------------------------------

DR         Peak         RMS     Duration Track
--------------------------------------------------------------------------------
DR11      -1.25 dB   -14.71 dB      6:44 01-Evidence (with Thelonious Monk)  (2022 Remaster)
DR12      -1.10 dB   -16.22 dB      6:38 02-In Walked Bud (with Thelonious Monk)  (2022 Remaster)
DR12      -1.47 dB   -16.95 dB      7:49 03-Blue Monk (with Thelonious Monk)  (2022 Remaster)
DR12      -1.11 dB   -14.90 dB      8:00 04-I Mean You (with Thelonious Monk)  (2022 Remaster)
DR11      -1.13 dB   -14.84 dB      7:19 05-Rhythm-A-Ning (with Thelonious Monk)  (2022 Remaster)
DR14      -1.44 dB   -17.84 dB      7:38 06-Purple Shades (with Thelonious Monk)  (2022 Remaster)
DR12      -1.13 dB   -15.39 dB      6:21 07-Evidence (Take 2) [with Thelonious Monk]  (2022 Remaster)
DR12      -1.68 dB   -15.97 dB      6:21 08-In Walked Bud (Take 2) [with Thelonious Monk]  (2022 Remaster)
DR11      -1.22 dB   -14.62 dB      7:03 09-Blue Monk (Take 9) [with Thelonious Monk]  (2022 Remaster)
DR13      -1.26 dB   -16.02 dB      7:35 10-I Mean You (Take 3) [with Thelonious Monk]  (2022 Remaster)
DR12      -1.06 dB   -15.37 dB      7:13 11-Rhythm-A-Ning (Take 2) [with Thelonious Monk]  (2022 Remaster)
DR13      -1.28 dB   -17.29 dB      7:12 12-Purple Shades (Take 4) [with Thelonious Monk]  (2022 Remaster)
--------------------------------------------------------------------------------

Number of tracks:  12
Official DR value: DR12

Samplerate:        96000 Hz
Channels:          2
Bits per sample:   24
Bitrate:           1750 kbps
Codec:             FLAC
================================================================================
Скачивание доступно после регистрации!!
Приватный:
Нет (DHT включён)
Размер:
1.07 Гб (1,152,149,948 байт) » файлов: 15
Участники:
0 раздают, 51 качают (51 участников всего)
Внешние участники:
--- [ Обновить ]
01:40
519
Нет комментариев. Ваш будет первым!