Поиск

2022 Black Flower - Magma {Sdban Ultra} [24-48]

2022 Black Flower - Magma {Sdban Ultra} [24-48]
Стили:
Дата издания диска:
28 января 2022
Носитель:
WEB
Формат:
PCM
Тип рипа:
tracks
Контейнер:
FLAC (*.flac)
Количество каналов:
2.0
Разрядность/ЧД:
24/48
Битрейт аудио:
lossless
Время звучания:
00:45:17
Наличие сканов:
только обложка

1. Magma. 6:33
2. O Fogo. 4:46
3. The Light. 6:24
4. Half Liquid. 3:48
5. Deep Dive Down. 7:27
6. Morning In The Jungle. 5:11
7. The Forge. 6:05
8. Blue Speck. 5:00

Состав:
  • — Jon Birdsong | cornet
  • — Karel Cuelenaere | keyboards
  • — Filip Vandebril | bass
  • — Simon Segers | drums
  • — Meskerem Mees | vocals
  • — Frederik Segers | production
Лог проверки качества
foobar2000 1.3.8 / Dynamic Range Meter 1.1.1
log date: 2022-01-28 16:20:04
--------------------------------------------------------------------------------
Analyzed: Black Flower / Magma
--------------------------------------------------------------------------------
DR         Peak         RMS     Duration Track
--------------------------------------------------------------------------------
DR4       -1.47 dB    -9.40 dB      6:34 01-Magma
DR8       -1.45 dB   -11.97 dB      4:47 02-O Fogo
DR8       -1.43 dB   -12.03 dB      6:24 03-The Light
DR6       -1.46 dB   -10.07 dB      3:48 04-Half Liquid
DR6       -1.42 dB    -9.87 dB      7:27 05-Deep Dive Down
DR7       -1.47 dB   -11.32 dB      5:11 06-feat. Meskerem Mees - Morning In The Jungle
DR8       -1.23 dB   -11.65 dB      6:06 07-The Forge
DR7       -1.64 dB   -11.24 dB      5:00 08-Blue Speck
--------------------------------------------------------------------------------
Number of tracks:  8
Official DR value: DR7
Samplerate:        48000 Hz
Channels:          2
Bits per sample:   24
Bitrate:           1515 kbps
Codec:             FLAC
================================================================================
Приватный:
Нет (DHT включён)
Размер:
501.99 Мб (526,373,940 байт) » файлов: 12
Участники:
0 раздают, 0 качают (0 участников всего)
Внешние участники:
3 раздают, 1 качают (4 участников всего) [ Обновить ]
10:35
326
Нет комментариев. Ваш будет первым!