Поиск

2022 Arnaud Dolmen - Adjusting {Gaya Music Production} [24-88.2]

2022 Arnaud Dolmen - Adjusting {Gaya Music Production} [24-88.2]
Стили:
Дата записи диска:
1 ноября 2020
Место записи:
Studio De Meudon, Meudon near Paris, France
Дата издания диска:
28 января 2022
Носитель:
WEB
Формат:
PCM
Тип рипа:
tracks
Контейнер:
FLAC (*.flac)
Количество каналов:
2.0
Разрядность/ЧД:
24/88,2
Битрейт аудио:
lossless
Наличие сканов:
только обложка

01. The Gap  05:43
02. SQN feat. Vincent Peirani  05:24
03. Cavernet  05:50
04. Ajistèman feat. Moonlight Benjamin  03:12
05. Ti Moun Gaya  03:56
06. For Real  04:44
07. Résonance feat. Naïssam Jalal  08:05
08. Hey Cousin  05:52
09. Ka Sa Té Ké Bay  04:21
10. Graj Ou Toumblak  05:20
11. Drôle de moment  06:12
12. Les Oublié.e.s  01:49

Состав:
  • Arnaud Dolmen: composition, drums, bouladjèl*
  • Leonardo Montana: piano
  • Samuel F'hima: double bass
  • Francesco Geminiani: saxophone
  • Ricardo Izquierdo: saxophone
  • Adrien Sanchèz: saxophone

Guests

  • Naïssam Jalal: flute
  • Vincent Peirani: accordion
  • Moonlight Benjamin: vocals
Лог проверки качества
foobar2000 1.4.2 / Dynamic Range Meter 1.1.1
log date: 2022-01-28 14:33:21
--------------------------------------------------------------------------------
Analyzed: Arnaud Dolmen / Adjusting
--------------------------------------------------------------------------------
DR         Peak         RMS     Duration Track
--------------------------------------------------------------------------------
DR9       -3.79 dB   -15.21 dB      5:44 01-The Gap
DR9       -1.53 dB   -12.79 dB      5:25 02-SQN
DR8       -2.25 dB   -13.92 dB      5:50 03-Cavernet
DR8       -2.12 dB   -12.01 dB      3:12 04-AjistГЁman
DR7       -3.41 dB   -13.56 dB      3:56 05-Ti Moun Gaya
DR7       -2.75 dB   -12.52 dB      4:44 06-For Real
DR8       -1.53 dB   -13.50 dB      8:05 07-RГ©sonance
DR9       -2.40 dB   -13.70 dB      5:52 08-Hey Cousin
DR11      -1.53 dB   -17.24 dB      4:21 09-Ka Sa TГ© KГ© Bay
DR8       -2.03 dB   -13.11 dB      5:21 10-Graj Ou Toumblak
DR8       -3.01 dB   -13.15 dB      6:13 11-DrГґle de moment
DR10      -1.65 dB   -14.71 dB      1:49 12-Les OubliГ©.e.s
--------------------------------------------------------------------------------
Number of tracks:  12
Official DR value: DR9
Samplerate:        88200 Hz
Channels:          2
Bits per sample:   24
Bitrate:           2409 kbps
Codec:             FLAC
================================================================================
21:47
282
Нет комментариев. Ваш будет первым!