Вы используете незарегистрированную версию компонента "Вкладки"!

Поиск

2021 Aki Takase, Christian Weber, Michael Griener - Auge {Intakt} [24-44.1]

2021 Aki Takase, Christian Weber, Michael Griener - Auge {Intakt} [24-44.1]
Стили:
Дата издания диска:
15 января 2021
Издатель (лейбл):
Битрейт аудио:
lossless
Доп. инфо:

Формат записи/Источник записи: [TR24][OF]
Наличие водяных знаков: Нет
Год издания: 2021
Продолжительность: 00:48:57
Наличие сканов в содержимом раздачи: Только обложка альбома
Контейнер: FLAC (*.flac)
Тип рипа: tracks
Разрядность: 24/44.1
Формат: PCM
Количество каналов: 2.0
Источник (релизер): highresaudio.com

Лог проверки качества
foobar2000 1.4.8 / Dynamic Range Meter 1.1.1
log date: 2021-01-17 10:53:35

--------------------------------------------------------------------------------
Analyzed: Auge, Aki Takase, Christian Weber, Michael Griener / Auge
--------------------------------------------------------------------------------

DR         Peak         RMS     Duration Track
--------------------------------------------------------------------------------
DR11      -0.65 dB   -16.48 dB      2:59 01-Last Winter
DR7       -0.31 dB   -10.78 dB      4:47 02-Drops of Light
DR11      -0.31 dB   -13.84 dB      1:34 03-Are Eyes Open?
DR9       -0.84 dB   -16.29 dB      4:14 04-No Tears
DR8       -0.31 dB   -10.98 dB      6:30 05-The Pillow Book
DR8       -0.31 dB   -11.75 dB      6:29 06-Face of the Bass
DR11      -0.31 dB   -13.62 dB      2:51 07-Calcagno
DR11      -0.55 dB   -15.71 dB      2:37 08-Out of Sight
DR10      -0.31 dB   -15.58 dB      2:27 09-While in Rome
DR8       -0.31 dB   -11.02 dB      2:49 10-Motion in the Ocean
DR6       -0.31 dB    -8.73 dB      2:59 11-And If Not, Why Not
DR10      -0.57 dB   -15.60 dB      2:09 12-Underfelt
DR8       -0.31 dB   -12.85 dB      4:28 13-Who's Going to Bell the Cat?
DR11      -0.31 dB   -13.26 dB      2:12 14-The End Justifies the Means
--------------------------------------------------------------------------------

Number of tracks:  14
Official DR value: DR9
Samplerate:        44100 Hz
Channels:          2
Bits per sample:   24
Bitrate:           1497 kbps
Codec:             FLAC
================================================================================
Any questions - support@pro-jazz.com. Есть вопросы - support@pro-jazz.com
00:06
177
Нет комментариев. Ваш будет первым!