Поиск

2016 VA - Venus The Amazing Super Audio CD Sampler Vol.16 {Venus} [DSD64]

2016 VA - Venus The Amazing Super Audio CD Sampler Vol.16 {Venus} [DSD64]
Издатель (лейбл):
Номер по каталогу:
VHGD-181
Битрейт аудио:
lossless
Доп. инфо:

Формат записи/Источник записи: [SACD-R][OF]
Наличие водяных знаков: Нет
Издание: Sampler
Год издания диска: 2016
Продолжительность: 01:25:11
Наличие сканов в содержимом раздачи: Да (сканы)

Контейнер: ISO (*.iso)
Тип рипа: image
Разрядность: 64 (2,8 MHz/1 Bit)
Формат: DSD
Количество каналов: 2.0

Источник: venusrecords

Лог проверки качества
foobar2000 1.6.2 / Замер динамического диапазона (DR) 1.1.1
Дата отчёта:  2021-01-17 09:59:11

--------------------------------------------------------------------------------
Анализ:   Various Artists / THE VENUS AMAZING SUPER AUDIO CD SAMPLER VOL.16
--------------------------------------------------------------------------------

DR         Пики         RMS           Продолжительность трека
--------------------------------------------------------------------------------
DR10      -5.14 дБ   -17.95 дБ      4:02 01-My Funny Valentine
DR6       -5.83 дБ   -13.17 дБ      4:01 02-Dos Gardenias
DR10      -4.34 дБ   -16.42 дБ      3:59 03-Bohemia After Dark
DR5       -4.78 дБ   -10.99 дБ     12:23 04-Voodoo Chile
DR6       -4.90 дБ   -12.16 дБ      4:06 05-Street Of Dreams
DR8       -4.77 дБ   -15.56 дБ      4:44 06-Mein Herr
DR8       -4.53 дБ   -15.39 дБ      4:45 07-Perfidia
DR10      -5.09 дБ   -16.83 дБ      7:23 08-Autumn In New York
DR8       -5.08 дБ   -14.54 дБ      4:33 09-Mood Indigo
DR8       -4.87 дБ   -15.80 дБ      5:14 10-Concerto No.4, In F Minor, Op.8, Rv297 ~Winter~ 1st Movement "Alleglo Non Molto"
DR7       -4.97 дБ   -13.68 дБ      5:00 11-Just One More Chance
DR8       -4.50 дБ   -14.23 дБ      6:18 12-Beautiful Love
DR6       -5.05 дБ   -13.68 дБ      4:06 13-Tennessee Waltz
DR8       -4.53 дБ   -15.19 дБ      7:16 14-If I Should Lose You
DR6       -5.12 дБ   -13.59 дБ      7:21 15-Moon Rays
--------------------------------------------------------------------------------

Количество треков: 15
Реальные значения DR: DR8

Частота:  2822400 Гц / Частота PCM: 352800 Гц
Каналов:  2
Разрядность:   1
Битрейт:  5645 кбит/с
Кодек:   DSD64
================================================================================
No seeders - write personal message to M0p94ok. Any questions - support@pro-jazz.com.
Нет сидеров - пишите в личку M0p94ok. Есть вопросы - support@pro-jazz.com
02:04
115
Нет комментариев. Ваш будет первым!