Поиск

2017 VA - Venus The Amazing Super Audio CD Sampler Vol.18 {Venus} [DSD64]

2017 VA - Venus The Amazing Super Audio CD Sampler Vol.18 {Venus} [DSD64]
Издатель (лейбл):
Номер по каталогу:
VHGD-218
Битрейт аудио:
lossless
Треклист:

01. Summertime - Harold Mabern Trio《 G. Gershwin 》
02. Georgia On My Mind - Eddie Harris Quartet《 H. Carmichael 》
03. It's All Right With Me - Massimo Farao' Trio《 C. Porter 》
04. Autumn In New York - Masahiko Togashi & J.J.Spirits《 V. Duke 》
05. The Old Country - Dino Rubino《 N. Adderley, C. Lewis 》
06. My Funny Valentine - Barbara Carroll Trio《 R. Rodgers 》
07. Time Remembered - David Hazeltine Trio《 B. Evans 》
08. If I Were A Bell - Richie Beirach Trio《 F. Loesser 》
09. Unforgettable - Nicki Parrott《 I. Gordon 》
10. When I Grow Too Old To Dream - Sir Roland Hanna Trio《 S. Romberg 》
11. Torna A Surriento - Danilo Rea Trio《 E. De Curtis 》
12. Once I Loved - Lee Konitz & The Brazilian Band《 A. C. Jobim 》
13. Lullaby Of The Leaves - Eddie Higgins Trio《 B. Petkers 》
14. Close Your Eyes - Derek Smith Trio《 C. Willis 》
15. Summertime - Jessica Young《 G. Gershwin 》

Доп. инфо:

Формат записи/Источник записи: [SACD-R][OF]
Наличие водяных знаков: Нет
Издание: Sampler
Год издания/переиздания диска: 2017
Продолжительность: 01:34:04
Наличие сканов в содержимом раздачи: Да (сканы)

Контейнер: ISO (*.iso)
Тип рипа: image
Разрядность: 64(2,8 MHz/1 Bit)
Формат: DSD
Количество каналов: 2.0

Источник: venusrecords

Лог проверки качества
foobar2000 1.6.2 / Замер динамического диапазона (DR) 1.1.1
Дата отчёта:  2021-01-17 17:07:03

--------------------------------------------------------------------------------
Анализ:   Various Artists / THE VENUS AMAZING SUPER AUDIO CD SAMPLER VOL.18
--------------------------------------------------------------------------------

DR         Пики         RMS           Продолжительность трека
--------------------------------------------------------------------------------
DR6       -5.14 дБ   -11.93 дБ      5:32 01-Summertime
DR7       -4.57 дБ   -13.65 дБ      6:23 02-Georgia on My Mind
DR7       -4.74 дБ   -12.93 дБ      5:48 03-It's All Right With Me
DR9       -4.43 дБ   -16.13 дБ      9:08 04-Autumn In New York
DR8       -4.20 дБ   -13.54 дБ      6:27 05-The Old Country
DR11      -5.00 дБ   -20.55 дБ      6:55 06-My Funny Valentine
DR8       -4.86 дБ   -15.09 дБ      5:24 07-Time Remembered
DR8       -4.35 дБ   -14.64 дБ      6:35 08-If I Were A Bell
DR4       -4.92 дБ   -10.57 дБ      4:10 09-Unforgettanble
DR8       -3.82 дБ   -13.60 дБ      4:55 10-When I Grow Too Old To Dream
DR7       -3.92 дБ   -15.60 дБ      6:19 11-Torna A Surriento
DR6       -4.53 дБ   -12.53 дБ      6:28 12-Once I Loved
DR10      -4.93 дБ   -18.09 дБ      8:38 13-Lullaby Of The Leaves
DR8       -4.52 дБ   -14.21 дБ      5:45 14-Close Your Eyes
DR6       -5.44 дБ   -13.83 дБ      5:35 15-Summertime
--------------------------------------------------------------------------------

Количество треков: 15
Реальные значения DR: DR7

Частота:  2822400 Гц / Частота PCM: 352800 Гц
Каналов:  2
Разрядность:   1
Битрейт:  5645 кбит/с
Кодек:   DSD64
================================================================================
Приватный:
Нет (DHT включён)
Размер:
3.79 Гб (4,069,204,407 байт) » файлов: 5
Участники:
0 раздают, 0 качают (0 участников всего)
Внешние участники:
30 раздают, 10 качают (40 участников всего) [ Обновить ]
No seeders - write personal message to M0p94ok. Нет сидеров - пишите в личку M0p94ok.
14:56
76
Нет комментариев. Ваш будет первым!