Поиск

2015 VA - Venus The Amazing Super Audio CD Sampler Vol.1 {Venus} [DSD64]

2015 VA - Venus The Amazing Super Audio CD Sampler Vol.1 {Venus} [DSD64]
Издатель (лейбл):
Номер по каталогу:
VHGD-50
Битрейт аудио:
lossless
Доп. инфо:

Формат записи/Источник записи: [SACD-R][OF]
Наличие водяных знаков: Нет
Издание: Sampler
Год издания диска: 2015
Издатель (лейбл): Venus Records [VHGD-50]
Продолжительность: 01:24:23
Наличие сканов в содержимом раздачи: Только обложка альбома

Контейнер: ISO (*.iso)
Тип рипа: image
Разрядность: 64(2,8 MHz/1 Bit)
Формат: DSD
Количество каналов: 2.0

Источник: venusrecords

Лог проверки качества
foobar2000 1.6.2 / Замер динамического диапазона (DR) 1.1.1
Дата отчёта:  2021-01-17 20:29:16

--------------------------------------------------------------------------------
Анализ:   Various Artists / THE VENUS AMAZING SUPER AUDIO CD SAMPLER VOL.1
--------------------------------------------------------------------------------

DR         Пики         RMS           Продолжительность трека
--------------------------------------------------------------------------------
DR10      -5.23 дБ   -18.09 дБ      6:18 01-SMOKE GETS IN YOUR EYES
DR8       -4.89 дБ   -15.24 дБ      3:42 02-BEAUTIFUL LOVE
DR10      -5.32 дБ   -18.43 дБ      5:41 03-MY FUNNY VALENTINE
DR9       -4.01 дБ   -16.65 дБ      7:00 04-LAND OF THE LIVING DEAD
DR10      -5.33 дБ   -17.79 дБ      6:36 05-THE THINGS WE DID LAST SUMMER
DR11      -5.38 дБ   -17.63 дБ      5:47 06-YOU'D BE SO NICE TO COME HOME TO
DR11      -5.37 дБ   -19.32 дБ      5:33 07-STRANGERS IN THE NIGHT
DR9       -4.51 дБ   -17.12 дБ      5:03 08-'S WONDERFUL
DR7       -5.71 дБ   -16.97 дБ      5:04 09-DANNY BOY
DR8       -5.19 дБ   -16.04 дБ      4:53 10-QUIEREME MUCHO
DR11      -5.67 дБ   -18.78 дБ      5:57 11-DEAR OLD STOCKHOLM
DR8       -4.65 дБ   -14.98 дБ      6:10 12-AUTUMN LEAVES
DR8       -4.52 дБ   -14.07 дБ      7:57 13-L'AME DES POETES
DR8       -5.45 дБ   -15.34 дБ      4:43 14-MOONLIGHT BECOMES YOU
DR8       -5.36 дБ   -15.44 дБ      4:00 15-TOO MARVELOUS FOR WORDS
--------------------------------------------------------------------------------

Количество треков: 15
Реальные значения DR: DR9

Частота:  2822400 Гц / Частота PCM: 352800 Гц
Каналов:  2
Разрядность:   1
Битрейт:  5645 кбит/с
Кодек:   DSD64
================================================================================
No seeders - write personal message to M0p94ok. Any questions - support@pro-jazz.com.
Нет сидеров - пишите в личку M0p94ok. Есть вопросы - support@pro-jazz.com
17:01
146
Нет комментариев. Ваш будет первым!