Поиск

2011 Benoit Delbecq - Because She Hoped {Songlines} [24-96]

2011 Benoit Delbecq - Because She Hoped {Songlines} [24-96]
Стили:
Дата записи диска:
18 января 2011
Место записи:
Studio John Cage, La Muse en Circuit, Alfortville, France
Дата издания диска:
8 ноября 2011
Номер по каталогу:
Songlines SGL 1592-2
Носитель:
WEB
Формат:
PCM
Тип рипа:
tracks
Контейнер:
FLAC (*.flac)
Количество каналов:
2.0
Разрядность/ЧД:
24/96
Битрейт аудио:
lossless
Время звучания:
00:51:53
Наличие сканов:
буклет pdf
Страна-производитель диска (релиза):
Canada
Релизёр (источник):
M0p94ok
Лог проверки качества
foobar2000 1.3.16 / Dynamic Range Meter 1.1.1
log date: 2019-05-10 16:11:44

--------------------------------------------------------------------------------
Analyzed: Benoît Delbecq, François Houle / Because She Hoped (1-9)
          Delbecq, Benoît / Because She Hoped (10)
--------------------------------------------------------------------------------

DR         Peak         RMS     Duration Track
--------------------------------------------------------------------------------
DR13      -0.10 dB   -18.58 dB      6:41 01-The Mystery Song
DR14      -0.10 dB   -17.21 dB      2:03 02-Pour Pee Wee
DR16      -0.10 dB   -22.32 dB      1:33 03-Le bois debout
DR14      -0.10 dB   -20.02 dB      4:35 04-Because She Hoped
DR13      -0.10 dB   -15.59 dB      6:55 05-Clichés
DR11      -7.03 dB   -23.13 dB      2:07 06-Le concombre de Chicoutimi
DR14      -0.62 dB   -20.06 dB      5:25 07-Binoculars
DR14      -0.10 dB   -16.25 dB      6:39 08-Ando
DR14      -0.10 dB   -17.65 dB      8:17 09-Nancali
DR12      -0.10 dB   -17.32 dB      7:30 10-Pour Pee Wee (Live)
--------------------------------------------------------------------------------

Number of tracks:  10
Official DR value: DR13

Samplerate:        96000 Hz
Channels:          2
Bits per sample:   24
Bitrate:           2618 kbps
Codec:             FLAC
================================================================================
No seeders - write personal message to M0p94ok. Any questions - support@pro-jazz.com.
Нет сидеров - пишите в личку M0p94ok. Есть вопросы - support@pro-jazz.com
20:20
122
Нет комментариев. Ваш будет первым!