Вы используете незарегистрированную версию компонента "Вкладки"!

Поиск

2019 Caroline Davis - Alula {New Amsterdam} [24-44.1]

2019 Caroline Davis - Alula {New Amsterdam} [24-44.1]
Стили:
Дата записи диска:
14 декабря 2017
Место записи:
Figure 8, Brooklyn, New York City, NY, USA
Дата издания диска:
10 мая 2019
Номер по каталогу:
NWAM112
Носитель:
WEB
Формат:
PCM
Тип рипа:
tracks
Контейнер:
FLAC (*.flac)
Количество каналов:
2.0
Разрядность/ЧД:
24/44,1
Битрейт аудио:
lossless
Время звучания:
00:39:09
Наличие сканов:
только обложка
Страна-производитель диска (релиза):
USA
Релизёр (источник):
M0p94ok
Лог проверки качества
foobar2000 1.3.16 / Dynamic Range Meter 1.1.1
log date: 2019-05-10 22:41:09

--------------------------------------------------------------------------------
Analyzed: Caroline Davis / Alula
--------------------------------------------------------------------------------

DR         Peak         RMS     Duration Track
--------------------------------------------------------------------------------
DR7        0.00 dB    -9.68 dB      3:58 01-Alula
DR9        0.00 dB   -10.80 dB      3:19 02-Flight
DR7        0.00 dB    -8.84 dB      3:02 03-Wingbeat
DR8        0.00 dB   -10.39 dB      6:54 04-Remiges
DR6        0.00 dB    -7.72 dB      4:56 05-Scapulars
DR8        0.00 dB   -11.12 dB      1:35 06-Lift
DR7        0.00 dB    -9.29 dB      3:57 07-Coverts
DR8        0.00 dB    -8.66 dB      4:57 08-Vortex Generator
DR8        0.00 dB   -10.28 dB      1:04 09-Purrs
DR7        0.00 dB    -8.15 dB      4:21 10-Landing
DR6        0.00 dB    -7.34 dB      1:13 11-Alula: alulA
--------------------------------------------------------------------------------

Number of tracks:  11
Official DR value: DR7

Samplerate:        44100 Hz
Channels:          2
Bits per sample:   24
Bitrate:           1532 kbps
Codec:             FLAC
================================================================================
Any questions - support@pro-jazz.com. Есть вопросы - support@pro-jazz.com
18:10
166
Нет комментариев. Ваш будет первым!