Вы используете незарегистрированную версию компонента "Вкладки"!

Поиск

2019 Dan Tepfer - Natural Machines {Sunnyside} [24-88.2]

2019 Dan Tepfer - Natural Machines {Sunnyside} [24-88.2]
Стили:
Дата издания диска:
17 мая 2019
Издатель (лейбл):
Номер по каталогу:
SSC 1559
Носитель:
WEB
Формат:
PCM
Тип рипа:
tracks
Контейнер:
FLAC (*.flac)
Количество каналов:
2.0
Разрядность/ЧД:
24/88,2
Битрейт аудио:
lossless
Время звучания:
01:02:38
Наличие сканов:
буклет pdf
Страна-производитель диска (релиза):
USA
Релизёр (источник):
M0p94ok
Лог проверки качества
foobar2000 1.3.16 / Dynamic Range Meter 1.1.1
log date: 2019-05-17 01:38:41

--------------------------------------------------------------------------------
Analyzed: Dan Tepfer / Natural Machines
--------------------------------------------------------------------------------

DR         Peak         RMS     Duration Track
--------------------------------------------------------------------------------
DR12      -0.61 dB   -17.68 dB      4:04 01-All The Things You Are / Canon At The Octave
DR14      -0.62 dB   -20.66 dB      5:11 02-Triadsculture
DR13      -0.93 dB   -16.88 dB      5:00 03-Constant Motion
DR12      -2.02 dB   -17.78 dB     10:57 04-Looper
DR13      -1.65 dB   -18.32 dB      2:52 05-Inversion
DR12      -1.99 dB   -16.18 dB      1:42 06-Intervals I / Industrial
DR13      -0.10 dB   -18.52 dB      6:21 07-Tremolo
DR13      -0.10 dB   -17.40 dB      8:17 08-Canon At The Octave / Metricmod
DR13      -1.48 dB   -19.14 dB      4:07 09-Intervals II / Folk Song
DR14      -0.11 dB   -18.83 dB      3:55 10-Demonic March
DR13      -1.55 dB   -19.12 dB     10:18 11-Fractal Tree
--------------------------------------------------------------------------------

Number of tracks:  11
Official DR value: DR13

Samplerate:        88200 Hz
Channels:          2
Bits per sample:   24
Bitrate:           2470 kbps
Codec:             FLAC
================================================================================
Any questions - support@pro-jazz.com. Есть вопросы - support@pro-jazz.com
19:59
144
Нет комментариев. Ваш будет первым!