Поиск

2015 VA - Venus The Amazing Super Audio CD Sampler Vol.2 {Venus} [DSD64]

2015 VA - Venus The Amazing Super Audio CD Sampler Vol.2 {Venus} [DSD64]
Стили:
Издатель (лейбл):
Номер по каталогу:
VHGD-61
Битрейт аудио:
lossless
Треклист:

01. Dark Eyes - Steve Kuhn Trio《 H. Horlick, G. Stone 》
02. Prelude For Piano - #4 E Minor - Richie Beirach Trio《 Chopin 》
03. Tenderly - Eddie Higgins & Scott Hamilton《 W. Gross 》
04. Under Paris Skies - Nicki Parrott《 J. Andre, K. Gannon, H. Giraud 》
05. I Left My Heart In San Francisco - Tsuyoshi Yamamoto Trio《 G. Cory, D. Cross 》
06. Violets For Your Furs - Eric Alexander Quartet《 M. Dennis 》
07. All The Things You Are - Bill Charlap Trio《 K. Kern 》
08. Memories Of You - Ken Peplowski Quartet《 E. Blake 》
09. I've Got You Under My Skin - Alexis Cole《 C. Porter 》
10. Black Coffee - Nicki Parrott《 P. F. Webster - S. Burke 》
11. fMy Little Brown Book - Phil Woods Quintet《 B. Strayhorn 》
12. I Will Wait For You - Steve Kuhn Trio《 M. Legrand 》
13. My Funny Valentine - Eric Alexander Quartet《 R. Rodgers 》
14 . Minor Blues - Kenny Barron Trio《 K. Barron 》
15. You'd Be So Nice To Come Home To - Eddie Higgins Quartet《 C. Portet 》

Доп. инфо:

Формат записи/Источник записи: [SACD-R][OF]
Наличие водяных знаков: Нет
Издание: Sampler
Год издания диска: 2015
Продолжительность: 01:22:10

Контейнер: ISO (*.iso)
Тип рипа: image
Разрядность: 64(2,8 MHz/1 Bit)
Формат: DSD
Количество каналов: 2.0

Источник: venusrecords

Лог проверки качества
foobar2000 1.6.3 / Замер динамического диапазона (DR) 1.1.1
Дата отчёта:  2021-01-19 20:54:09

--------------------------------------------------------------------------------
Анализ:   Various Artists / THE VENUS AMAZING SUPER AUDIO CD SAMPLER VOL.2
--------------------------------------------------------------------------------

DR         Пики         RMS           Продолжительность трека
--------------------------------------------------------------------------------
DR8       -4.79 дБ   -14.55 дБ      6:05 01-Dark Eyes
DR9       -3.97 дБ   -16.75 дБ      7:48 02-Prelude For Piano - #4 E Minor
DR8       -5.95 дБ   -16.24 дБ      3:12 03-Tenderly
DR7       -5.18 дБ   -13.43 дБ      4:02 04-Under Paris Sky
DR8       -4.44 дБ   -16.03 дБ      4:09 05-I Left My Heart In San Francisco
DR8       -4.19 дБ   -13.51 дБ      6:15 06-Violets For Your Furs
DR7       -4.72 дБ   -13.08 дБ      4:23 07-All The Things You Are
DR9       -4.68 дБ   -15.33 дБ      5:28 08-Memories Of You
DR8       -4.94 дБ   -15.54 дБ      4:50 09-I've Got You Under My Skin
DR8       -4.87 дБ   -14.76 дБ      5:34 10-Black Coffee
DR8       -5.48 дБ   -14.42 дБ      4:08 11-My Little Brown Book
DR8       -2.96 дБ   -12.85 дБ      5:41 12-I Will Wait For You
DR8       -5.39 дБ   -15.29 дБ      7:04 13-My Funny Valentine
DR10      -4.69 дБ   -16.03 дБ      6:33 14-Minor Blues
DR8       -4.06 дБ   -14.39 дБ      6:59 15-You'd Be So Nice To Come Home To
--------------------------------------------------------------------------------

Количество треков: 15
Реальные значения DR: DR8

Частота:  2822400 Гц / Частота PCM: 352800 Гц
Каналов:  2
Разрядность:   1
Битрейт:  5645 кбит/с
Кодек:   DSD64
================================================================================
Приватный:
Нет (DHT включён)
Размер:
3.32 Гб (3,560,542,643 байт) » файлов: 4
Участники:
0 раздают, 0 качают (0 участников всего)
Внешние участники:
18 раздают, 6 качают (24 участников всего) [ Обновить ]
No seeders - write personal message to M0p94ok. Нет сидеров - пишите в личку M0p94ok.
01:47
92
Нет комментариев. Ваш будет первым!