Поиск

2013 East Drive - Folksongs 2 {Neuklang NCD4069} [24-44.1]

2013 East Drive - Folksongs 2 {Neuklang NCD4069} [24-44.1]
Стили:
Место записи:
Tonstudio Milch-Musik
Дата издания диска:
1 февраля 2013
Издатель (лейбл):
Номер по каталогу:
NCD4069
Носитель:
WEB
Формат:
PCM
Тип рипа:
tracks
Контейнер:
FLAC (*.flac)
Количество каналов:
2.0
Разрядность/ЧД:
24/44,1
Битрейт аудио:
lossless
Время звучания:
00:49:32
Наличие сканов:
буклет pdf
Страна-производитель диска (релиза):
Germany
Релизёр (источник):
M0p94ok
Лог проверки качества
foobar2000 1.6.2 / Dynamic Range Meter 1.1.1
log date: 2021-03-23 02:03:48

--------------------------------------------------------------------------------
Analyzed: East Drive / Folksongs 2
--------------------------------------------------------------------------------

DR         Peak         RMS     Duration Track
--------------------------------------------------------------------------------
DR8       -0.33 dB   -11.21 dB      7:13 01-Bulgar
DR12      -0.33 dB   -13.38 dB      3:54 02-Doma
DR11      -0.33 dB   -14.95 dB      7:56 03-Kolybel'naya
DR9       -0.33 dB   -11.94 dB      7:27 04-Feines Süppchen
DR11      -0.33 dB   -14.33 dB      7:05 05-Tangolivia
DR8       -0.33 dB   -10.48 dB      5:44 06-Seelenverwandtschaft
DR12      -0.34 dB   -15.11 dB      3:55 07-Ratka Mitrovica
DR10      -0.33 dB   -12.14 dB      6:23 08-Sam
--------------------------------------------------------------------------------

Number of tracks:  8
Official DR value: DR10

Samplerate:        44100 Hz
Channels:          2
Bits per sample:   24
Bitrate:           1500 kbps
Codec:             FLAC
================================================================================
No seeders - write personal message to M0p94ok. Any questions - support@pro-jazz.com.
Нет сидеров - пишите в личку M0p94ok. Есть вопросы - support@pro-jazz.com
03:22
125
Нет комментариев. Ваш будет первым!