Поиск

2020 Terje Gewelt - House on a Hill {Resonant Music} [24-44.1]

2020 Terje Gewelt - House on a Hill {Resonant Music} [24-44.1]
Стили:
Битрейт аудио:
lossless
Доп. инфо:

Формат записи/Источник записи: [TR24][OF]
Наличие водяных знаков: Нет
Год издания/переиздания диска: 2020
Издатель (лейбл): Resonant Music
Продолжительность: 00:47:31
Наличие сканов в содержимом раздачи: Только обложка альбома

Контейнер: FLAC (*.flac)
Тип рипа: tracks
Разрядность: 24/44,1
Формат: PCM
Количество каналов: 2.0

Источник (релизер): redacted <-- qobuz

Лог проверки качества
foobar2000 1.6.2 / Dynamic Range Meter 1.1.1
log date: 2021-01-20 00:33:50

--------------------------------------------------------------------------------
Analyzed: Terje Gewelt / House on a Hill
--------------------------------------------------------------------------------

DR         Peak         RMS     Duration Track
--------------------------------------------------------------------------------
DR9       -1.00 dB   -13.11 dB      5:07 01-Buzios
DR10      -1.01 dB   -13.72 dB      4:20 02-House on a Hill
DR11      -1.01 dB   -14.77 dB      5:22 03-What Now?
DR11      -1.02 dB   -14.31 dB      5:37 04-Carpe Diem
DR10      -1.01 dB   -12.12 dB      4:10 05-Butterfly and Snowflakes
DR11      -1.00 dB   -15.30 dB      5:01 06-Skagerrak
DR9       -1.02 dB   -13.87 dB      2:35 07-Night Turns to Day
DR9       -1.01 dB   -11.97 dB      5:26 08-The Move
DR10      -1.02 dB   -15.34 dB      4:41 09-Arrival
DR11      -1.02 dB   -14.73 dB      5:12 10-Wherever the Wind Blows
--------------------------------------------------------------------------------

Number of tracks:  10
Official DR value: DR10

Samplerate:        44100 Hz
Channels:          2
Bits per sample:   24
Bitrate:           1544 kbps
Codec:             FLAC
================================================================================
No seeders - write personal message to M0p94ok. Any questions - support@pro-jazz.com.
Нет сидеров - пишите в личку M0p94ok. Есть вопросы - support@pro-jazz.com
14:38
156
Нет комментариев. Ваш будет первым!