Поиск

1972 CTI All Stars - California Concert (2017) {CTI} [24-192]

1972 CTI All Stars - California Concert (2017) {CTI} [24-192]
Дата записи диска:
18 июля 1971
Место записи:
Hollywood Palladium
Издатель (лейбл):
Битрейт аудио:
lossless
Доп. инфо:

Формат записи/Источник записи: [TR24][OF]
Издание: Remastered
Год издания/переиздания диска: 1972/2017
Продолжительность: 01:16:39
Наличие сканов в содержимом раздачи: Нет

Контейнер: FLAC (*.flac)
Тип рипа: tracks
Разрядность: 24/192
Количество каналов: 2.0

Источник (релизер): King Records

Лог проверки качества
foobar2000 1.4.3 / Dynamic Range Meter 1.1.1
log date: 2021-01-05 17:33:31

--------------------------------------------------------------------------------
Analyzed: George Benson, Freddie Hubbard, Hubert Laws, Stanley Turrentine, Hank Crawford, Johnny Hammond, Ron Carter, Billy Cobham, Airto Moreira / California Concert: The Hollywood Palladium, July 18, 1971
--------------------------------------------------------------------------------

DR         Peak         RMS     Duration Track
--------------------------------------------------------------------------------
DR13      -0.10 dB   -17.60 dB     11:39 01-Fire and Rain
DR11      -0.10 dB   -14.55 dB     14:37 02-Red Clay
DR12      -0.10 dB   -15.72 dB     13:46 03-Sugar
DR14      -0.10 dB   -16.99 dB     20:46 04-Blues West
DR15      -0.10 dB   -19.28 dB     15:54 05-Leaving West
--------------------------------------------------------------------------------

Number of tracks:  5
Official DR value: DR13

Samplerate:        192000 Hz
Channels:          2
Bits per sample:   24
Bitrate:           5530 kbps
Codec:             FLAC
================================================================================
No seeders - write personal message to M0p94ok. Any questions - support@pro-jazz.com.
Нет сидеров - пишите в личку M0p94ok. Есть вопросы - support@pro-jazz.com
16:04
153
Нет комментариев. Ваш будет первым!