Поиск

2015 VA - Venus The Amazing Super Audio CD Sampler Vol.3 {Venus} [DSD64]

2015 VA - Venus The Amazing Super Audio CD Sampler Vol.3 {Venus} [DSD64]
Издатель (лейбл):
Номер по каталогу:
VHGD-67
Битрейт аудио:
lossless
Треклист:

01. Bei Mir Bist Du Schoen - Nicki Parrott《 S. Chaplin, S. Kahn - S. Secunda 》
02. Summertime - Eddie Higgins Trio《 G. Gershwin 》
03. You’ve Changed - Brian Lynch Afro Cuban Jazz Orchestra《 C. Fischer 》
04. Russian Lullaby - Eddie Higgins & Scott Hamilton《 I. Berlin 》
05. Beautiful Love - David Hazeltine Trio《 V. Young, W. King, Van Alstyne 》
06. Smoke Gets In Your Eyes - Eric Alexander Quartet《 J. Kern 》
07. Cry Me A River - Nicki Parrott《 A. Hamilton 》
08. Softly, As In A Morning Sunrise - Eddie Higgins Quintet《 S. Romberg 》
09. Lonnie's Lament - Archie Shepp Quartet《 J. Coltrane 》
10. Feel You ~ from Dreams Of Love No3 - Simone Kopmajer《 S. Kopmajer, F. Liszt 》
11. The Thrill Is Gone - Phil Woods With Strings《 R. Henderson 》
12. Cool Struttin' - Tsuyoshi Yamamoto Trio《 S. Clark 》
13. So In Love - Massimo Farao' Trio《 C. Porter 》
14 . My Funny Valentine - New York Trio《 R. Rodgers 》
15. It Amazes Me - Sally Night《 Coleman & Leigh 》

Доп. инфо:

Формат записи/Источник записи: [SACD-R][OF]
Наличие водяных знаков: Нет
Издание: Sampler
Год издания диска: 2015
Продолжительность: 01:25:01
Наличие сканов в содержимом раздачи: Только обложка альбома

Контейнер: ISO (*.iso)
Тип рипа: image
Разрядность: 64(2,8 MHz/1 Bit)
Формат: DSD
Количество каналов: 2.0

Источник : venusrecords

Лог проверки качества
foobar2000 1.6.3 / Замер динамического диапазона (DR) 1.1.1
Дата отчёта:  2021-01-20 22:31:50

--------------------------------------------------------------------------------
Анализ:   Various Artists / THE VENUS AMAZING SUPER AUDIO CD SAMPLER VOL.3
--------------------------------------------------------------------------------

DR         Пики         RMS           Продолжительность трека
--------------------------------------------------------------------------------
DR9       -4.12 дБ   -15.28 дБ      4:05 01-Bei Mir Bist Du Schoen
DR8       -3.65 дБ   -14.14 дБ      5:29 02-Summertime
DR8       -4.83 дБ   -14.26 дБ      7:17 03-You've Changed
DR8       -4.40 дБ   -14.22 дБ      7:56 04-Russian Lullaby
DR7       -4.50 дБ   -13.92 дБ      4:45 05-Beautiful Love
DR8       -4.65 дБ   -14.44 дБ      7:10 06-Smoke Gets In Your Eyes
DR9       -4.43 дБ   -15.28 дБ      5:11 07-Cry Me A River
DR8       -4.47 дБ   -14.54 дБ      5:26 08-Softly, As In A Morning Sunrise
DR7       -4.26 дБ   -15.18 дБ      5:22 09-Lonnie's Lament
DR9       -3.71 дБ   -14.70 дБ      4:58 10-Feel You
DR8       -4.27 дБ   -14.33 дБ      4:43 11-The Thrill Is Gone
DR8       -4.63 дБ   -14.47 дБ      5:27 12-Cool Struttin'
DR8       -4.78 дБ   -13.72 дБ      6:08 13-So In Love
DR11      -4.83 дБ   -18.39 дБ      6:11 14-My Funny Valentine
DR8       -4.79 дБ   -16.43 дБ      4:54 15-It Amazes Me
--------------------------------------------------------------------------------

Количество треков: 15
Реальные значения DR: DR8

Частота:  2822400 Гц / Частота PCM: 352800 Гц
Каналов:  2
Разрядность:   1
Битрейт:  5645 кбит/с
Кодек:   DSD64
================================================================================
Приватный:
Нет (DHT включён)
Размер:
3.41 Гб (3,663,809,927 байт) » файлов: 4
Участники:
0 раздают, 0 качают (0 участников всего)
Внешние участники:
10 раздают, 3 качают (13 участников всего) [ Обновить ]
No seeders - write personal message to M0p94ok. Нет сидеров - пишите в личку M0p94ok.
22:29
187
Нет комментариев. Ваш будет первым!