Поиск

2014 VA - Festival Jazz de la Croqueta {Club del Disco} [24-48]

2014 VA - Festival Jazz de la Croqueta {Club del Disco} [24-48]
Стили:
Дата записи диска:
15 марта 2014
Место записи:
la Boutique del Libro de San Isidro
Дата издания диска:
23 декабря 2014
Носитель:
WEB
Формат:
PCM
Тип рипа:
tracks
Контейнер:
FLAC (*.flac)
Количество каналов:
2.0
Разрядность/ЧД:
24/48
Битрейт аудио:
lossless
Время звучания:
01:09:14
Наличие сканов:
буклет pdf
Релизёр (источник):
M0p94ok
Лог проверки качества
foobar2000 1.6.2 / Dynamic Range Meter 1.1.1
log date: 2021-03-23 23:27:23

--------------------------------------------------------------------------------
Analyzed: Dan Pocetti, Marcelo Lanouguere, Sebastián Borromeo & Tomás Uriburu / Festival Jazz de la Croqueta (1-2)
          Juan Sabogal & Manuel de Barrio / Festival Jazz de la Croqueta (3)
          Julián Leguizamón, Manquel Lo Presti & Ignacio Colafrancesco / Festival Jazz de la Croqueta (4-5)
          Ramiro Flores, Ezequiel Cantero, Tomás Sainz, Sergio Wagner & Martín Varela / Festival Jazz de la Croqueta (6-7)
--------------------------------------------------------------------------------

DR         Peak         RMS     Duration Track
--------------------------------------------------------------------------------
DR8       -1.50 dB   -11.24 dB      5:57 03-Estate de Cittá
DR11       0.00 dB   -13.35 dB      7:46 04-El 25
DR12      -0.06 dB   -15.59 dB     21:14 05-Presentación - Solo de Batería
DR10       0.00 dB   -12.10 dB      9:50 06-Spain
DR10      -0.04 dB   -13.11 dB      5:04 07-Juramento
DR9        0.00 dB   -10.94 dB      8:38 01-Sticks
DR11       0.00 dB   -13.57 dB     10:48 02-Mercy, Mercy, Mercy
--------------------------------------------------------------------------------

Number of tracks:  7
Official DR value: DR10

Samplerate:        48000 Hz
Channels:          2
Bits per sample:   24
Bitrate:           1782 kbps
Codec:             FLAC
================================================================================
No seeders - write personal message to M0p94ok. Any questions - support@pro-jazz.com.
Нет сидеров - пишите в личку M0p94ok. Есть вопросы - support@pro-jazz.com
00:46
124
Нет комментариев. Ваш будет первым!