Поиск

1958 Cootie Williams on Trumpet and his Orchestra - Cootie Williams in Stereo (2017) {HDTT} [24-96]

1958 Cootie Williams on Trumpet and his Orchestra - Cootie Williams in Stereo (2017) {HDTT} [24-96]
Стили:
Дата записи диска:
25 марта - 8 апреля 1958
Место записи:
Webster Hall, New York City, NY, USA
Битрейт аудио:
lossless
Доп. инфо:

Формат записи/Источник записи: [TR24][OF]
Издание: Remastered
Год издания/переиздания диска: 1958/2017
Издатель (лейбл): HDTT
Продолжительность: 00:39:32
Наличие сканов в содержимом раздачи: Буклет PDF

Контейнер: FLAC (*.flac)
Тип рипа: tracks
Разрядность: 24/96
Количество каналов: 2.0

Источник (релизер): HDTT

Лог проверки качества
foobar2000 1.4.3 / Dynamic Range Meter 1.1.1
log date: 2021-01-21 16:22:58

--------------------------------------------------------------------------------
Analyzed: Cootie Williams on Trumpet and his Orchestra / Cootie Williams in Stereo
--------------------------------------------------------------------------------

DR         Peak         RMS     Duration Track
--------------------------------------------------------------------------------
DR12      -0.49 dB   -15.71 dB      3:29 01-Just In Time
DR11      -0.83 dB   -15.50 dB      3:20 02-Summit Ridge Drive
DR13      -0.84 dB   -16.07 dB      3:43 03-Nevertheless, I'm In Love With You
DR11      -1.66 dB   -16.38 dB      3:29 04-On The Street Where You Live
DR12      -0.21 dB   -15.88 dB      3:20 05-I'll See You In My Dreams
DR12      -1.41 dB   -17.40 dB      2:55 06-Contrasts
DR12      -0.88 dB   -16.43 dB      3:40 07-Caravan
DR13      -0.36 dB   -15.66 dB      2:39 08-If I Could Be With You One Hour Tonight
DR13       0.00 dB   -15.67 dB      3:14 09-Air Mail Special
DR12      -1.42 dB   -15.53 dB      3:43 10-My Old Flame
DR12       0.00 dB   -14.90 dB      3:25 11-Swingin' Down The Lane
DR12      -1.29 dB   -17.05 dB      2:57 12-New Concerto For Cootie
--------------------------------------------------------------------------------

Number of tracks:  12
Official DR value: DR12

Samplerate:        96000 Hz
Channels:          2
Bits per sample:   24
Bitrate:           3022 kbps
Codec:             FLAC
================================================================================
No seeders - write personal message to M0p94ok. Any questions - support@pro-jazz.com.
Нет сидеров - пишите в личку M0p94ok. Есть вопросы - support@pro-jazz.com
19:57
123
Нет комментариев. Ваш будет первым!